Вернуться   Нижегородский Форум Друзей > Наши хобби и увлечения > Спорт > Зимние виды спорта > Хоккей > NHL
Забыли пароль? Регистрация




Ответ
 
Опции темы Опции просмотра
Старый 29.06.2010, 21:53   #1
 
Аватар для alexrocker
 
Регистрация: 29.11.2008
Адрес: Матушка-Рассея
Пол: M
Провайдер: Стрим
Сообщений: 4,487
Поблагодарил: 3,286
Поблагодарили 15,307 раз в 3,171 сообщениях
Открыли хайд :
0 в этом сообщении
28,975 Всего


Хорошо NHL. Detroit - Colorado (26.03.97) TVRip

Detroit - Colorado





Кадры:






















Качество:

TVRip
Перевод: английский
Format : AVI
Format/Info : Audio Video Interleave
File size : 702 MiB
Duration : 2h 26mn
Overall bit rate : 671 Kbps
Writing application : FairUse Wizard - [Для просмотра данной ссылки нужно зарегистрироваться]
Writing library : The best and REALLY easy backup tool
Video #0
ID : 0
Format : AVC
Format/Info : Advanced Video Codec
Format profile : Main@L4.0
Format settings, CABAC : Yes
Format settings, ReFrames : 2 frames
Codec ID : H264
Duration : 2h 26mn
Bit rate : 531 Kbps
Width : 384 pixels
Height : 272 pixels
Display aspect ratio : 1.412
Frame rate : 29.970 fps
Original frame rate : 14.985 fps
Resolution : 24 bits
Colorimetry : 4:2:0
Scan type : Progressive
Bits/(Pixel*Frame) : 0.170
Stream size : 556 MiB (79%)
Writing library : x264 core 34 svn-285M
Audio #1
ID : 1
Format : MPEG Audio
Format version : Version 1
Format profile : Layer 3
Codec ID : 55
Codec ID/Hint : MP3
Duration : 2h 26mn
Bit rate mode : Constant
Bit rate : 128 Kbps
Channel(s) : 2 channels
Sampling rate : 48.0 KHz
Resolution : 16 bits
Stream size : 134 MiB (19%)
Alignment : Aligned on interleaves
Interleave, duration : 33 ms (1.00 video frame)
Interleave, preload duration : 504 ms
Writing library : LAME3.96r
Encoding settings : -m j -V 4 -q 2 -lowpass 17.5 -b 128





files.unn

[Для просмотра данной ссылки нужно зарегистрироваться]
__________________
alexrocker вне форума  
Ответить с цитированием
Этот пользователь сказал Спасибо alexrocker за это полезное сообщение:
dajacobs (02.07.2010)
Ответ

Метки
codec, colorado, detroit, duration, tvrip


Здесь присутствуют: 1 (пользователей: 0 , гостей: 1)
 
Опции темы
Опции просмотра

Ваши права в разделе
Вы не можете создавать новые темы
Вы не можете отвечать в темах
Вы не можете прикреплять вложения
Вы не можете редактировать свои сообщения

BB коды Вкл.
Смайлы Вкл.
[IMG] код Вкл.
HTML код Выкл.
Trackbacks are Выкл.
Pingbacks are Выкл.
Refbacks are Выкл.


Часовой пояс GMT +3, время: 06:17.