Вернуться   Нижегородский Форум Друзей > Обсуждаем и качаем > Музыка > Lossless > Электронная музыка > Chillout Zone Lossless
Забыли пароль? Регистрация




Ответ
 
Опции темы Опции просмотра
Старый 14.03.2009, 13:37   #1
Kamerad
 
Аватар для gramm
 
Регистрация: 16.08.2007
Пол: M
Сообщений: 499
Поблагодарил: 182
Поблагодарили 1,215 раз в 325 сообщениях
Открыли хайд :
0 в этом сообщении
119 Всего


Счастье [Lounge, Beat, Funky Breaks] Ursula 1000



Artist: Ursula 1000
Title: Mystics
Released: 24.02.2009
Format: Unmixed Audio CD (Album)
Label: ESL Music
Catalog #: ESL143
Genre: Lounge | Beat | Funky Breaks | Pastiche-a-Delica
Total Size: 349.00 Mb
Total Time: 50' 35" min
Bitrate: Flac 1.2.1 ~ 966 kbit/s (Mixed Track -.Flac + .cue + .log + Covers)


Tracklist:

01. Summoned from the Void
02. The Wizard (feat. Kathleen Cholewka)
03. Rocket
04. Rump (feat. Tee Double)
05. I.C.O.M.E. (feat. Rochelle Vincente Von K)
06. Losin' It (feat. Anton Glamb)
07. Zombies (feat. Kojak)
08. Do It Right
09. Star Machine (feat. Mocean Worker)
10. Tension (feat. Austin Schwab)
11. Step Back (feat. Sista Widey)
12. This Magick
13. Mystics (feat. Mike Geier)


log:
Exact Audio Copy V0.99 prebeta 4 from 23. January 2008

EAC extraction logfile from 4. March 2009, 17:49

Ursula 1000 / Mystics

Used drive : PIONEER DVD-RW DVR-112D Adapter: 1 ID: 0

Read mode : Secure
Utilize accurate stream : Yes
Defeat audio cache : Yes
Make use of C2 pointers : No

Read offset correction : 48
Overread into Lead-In and Lead-Out : No
Fill up missing offset samples with silence : Yes
Delete leading and trailing silent blocks : No
Null samples used in CRC calculations : Yes
Used interface : Installed external ASPI interface

Used output format : User Defined Encoder
Selected bitrate : 192 kBit/s
Quality : Low
Add ID3 tag : Yes
Command line compressor : C:\Program Files\E A C Audio\Flac\flac.exe
Additional command line options : -V -8 -T "artist=%a" -T "title=%t" -T "album=%g" -T "date=%y" -T "tracknumber=%n" -T "genre=%m" %s


TOC of the extracted CD

Track | Start | Length | Start sector | End sector
---------------------------------------------------------
1 | 0:00.00 | 0:35.20 | 0 | 2644
2 | 0:35.20 | 3:19.31 | 2645 | 17600
3 | 3:54.51 | 3:37.31 | 17601 | 33906
4 | 7:32.07 | 5:02.04 | 33907 | 56560
5 | 12:34.11 | 4:06.47 | 56561 | 75057
6 | 16:40.58 | 3:28.22 | 75058 | 90679
7 | 20:09.05 | 3:52.03 | 90680 | 108082
8 | 24:01.08 | 4:29.51 | 108083 | 128308
9 | 28:30.59 | 4:59.38 | 128309 | 150771
10 | 33:30.22 | 3:29.68 | 150772 | 166514
11 | 37:00.15 | 4:22.08 | 166515 | 186172
12 | 41:22.23 | 4:23.24 | 186173 | 205921
13 | 45:45.47 | 4:49.09 | 205922 | 227605


Range status and errors

Selected range

Filename G:\lossless-room.nnm.ru\Ursula 1000 - Mystics\Ursula 1000 - Mystics.wav

Peak level 98.9 %
Range quality 99.9 %
Test CRC 6BB77CD8
Copy CRC 6BB77CD8
Copy OK

No errors occurred


AccurateRip summary

Track 1 not present in database
Track 2 not present in database
Track 3 not present in database
Track 4 not present in database
Track 5 not present in database
Track 6 not present in database
Track 7 not present in database
Track 8 not present in database
Track 9 not present in database
Track 10 not present in database
Track 11 not present in database
Track 12 not present in database
Track 13 not present in database

None of the tracks are present in the AccurateRip database

End of status report


::Скачать::

[Для просмотра данной ссылки нужно зарегистрироваться]
[Для просмотра данной ссылки нужно зарегистрироваться]
[Для просмотра данной ссылки нужно зарегистрироваться]
[Для просмотра данной ссылки нужно зарегистрироваться]
__________________
gramm вне форума  
Ответить с цитированием
Ответ


Здесь присутствуют: 1 (пользователей: 0 , гостей: 1)
 
Опции темы
Опции просмотра

Ваши права в разделе
Вы не можете создавать новые темы
Вы не можете отвечать в темах
Вы не можете прикреплять вложения
Вы не можете редактировать свои сообщения

BB коды Вкл.
Смайлы Вкл.
[IMG] код Вкл.
HTML код Выкл.
Trackbacks are Выкл.
Pingbacks are Выкл.
Refbacks are Выкл.


Часовой пояс GMT +3, время: 07:48.