Вернуться   Нижегородский Форум Друзей > Обсуждаем и качаем > Музыка > Lossless > Электронная музыка > Chillout Zone Lossless
Забыли пароль? Регистрация




Ответ
 
Опции темы Опции просмотра
Старый 04.02.2009, 12:15   #1
Kamerad
 
Аватар для gramm
 
Регистрация: 16.08.2007
Пол: M
Сообщений: 499
Поблагодарил: 182
Поблагодарили 1,215 раз в 325 сообщениях
Открыли хайд :
0 в этом сообщении
119 Всего


Счастье [Lounge, downtempo] VA - FashionTV - Spring Summer 2002 Collection


Artist: Various
Title: FashionTV - Spring Summer 2002 Collection
Label: [Для просмотра данной ссылки нужно зарегистрироваться]
Genre: Lounge, downtempo
Total Size: 460MB
EAC/APE+CUE+LOG
Источник: AvaxHome



::Tracklist::
01. Jay Q - Summer Sojourn
02. Unknown Artist - Unknown Title
03. Stryke pres.The Azul Project - Ain't No Sunshine
04. Zero 7 - Waiting Line (Aquanote's Naked Adaptation)
05. Yann Fontaine - No-One Else
06. Herbert - Leave Me Now
07. Benjamin Diamond - Little Scare (Todd Edwards Main Vocalized Version)
08. Stéphane Pompougnac - Closer To Julie
09. Kaori - Good Life
10. Waldeck - This Isn't Maybe (Eric Kupper Mix)
11. St. Germain - Alabama Blues (Todd Edwards Mix)
12. Quantic - Fifth Exotic
13. Charles Shillings & Pompon F. - Starshine
14. Urban Chill - Footprint On Sand
15. Ive Mendes - If You Leave Me Now

log:
Exact Audio Copy V0.99 prebeta 3 from 28. July 2007

EAC extraction logfile from 5. June 2008, 8:58

FashionTV / Spring Summer 2002 Collection

Used drive : PIONEER DVD-RW DVR-111D Adapter: 0 ID: 0

Read mode : Secure
Utilize accurate stream : Yes
Defeat audio cache : Yes
Make use of C2 pointers : No

Read offset correction : 48
Overread into Lead-In and Lead-Out : No
Fill up missing offset samples with silence : Yes
Delete leading and trailing silent blocks : No
Null samples used in CRC calculations : Yes
Used interface : Installed external ASPI interface

Used output format : Internal WAV Routines
Sample format : 44.100 Hz; 16 Bit; Stereo


TOC of the extracted CD

Track | Start | Length | Start sector | End sector
---------------------------------------------------------
1 | 0:00.00 | 3:29.20 | 0 | 15694
2 | 3:29.20 | 4:42.10 | 15695 | 36854
3 | 8:11.30 | 5:33.10 | 36855 | 61839
4 | 13:44.40 | 6:24.70 | 61840 | 90709
5 | 20:09.35 | 5:21.25 | 90710 | 114809
6 | 25:30.60 | 6:16.47 | 114810 | 143056
7 | 31:47.32 | 6:36.05 | 143057 | 172761
8 | 38:23.37 | 4:35.48 | 172762 | 193434
9 | 42:59.10 | 3:14.02 | 193435 | 207986
10 | 46:13.12 | 6:54.25 | 207987 | 239061
11 | 53:07.37 | 5:35.18 | 239062 | 264204
12 | 58:42.55 | 4:02.05 | 264205 | 282359
13 | 62:44.60 | 5:27.37 | 282360 | 306921
14 | 68:12.22 | 5:39.63 | 306922 | 332409
15 | 73:52.10 | 3:55.47 | 332410 | 350081


Range status and errors

Selected range

Filename E:\Temp\CD\VA - FashionTV Spring Summer 2002 Collection (2002)\FashionTV - Spring Summer 2002 Collection.wav

Peak level 100.0 %
Range quality 100.0 %
Copy CRC E61F100A
Copy OK

No errors occurred

End of status report


[Для просмотра данной ссылки нужно зарегистрироваться]
[Для просмотра данной ссылки нужно зарегистрироваться]
[Для просмотра данной ссылки нужно зарегистрироваться]
[Для просмотра данной ссылки нужно зарегистрироваться]
[Для просмотра данной ссылки нужно зарегистрироваться]
__________________
gramm вне форума  
Ответить с цитированием
Эти 2 пользователя(ей) сказали Спасибо gramm за это полезное сообщение:
Dyson (08.02.2009), negodiay (05.02.2009)
Ответ


Здесь присутствуют: 1 (пользователей: 0 , гостей: 1)
 
Опции темы
Опции просмотра

Ваши права в разделе
Вы не можете создавать новые темы
Вы не можете отвечать в темах
Вы не можете прикреплять вложения
Вы не можете редактировать свои сообщения

BB коды Вкл.
Смайлы Вкл.
[IMG] код Вкл.
HTML код Выкл.
Trackbacks are Выкл.
Pingbacks are Выкл.
Refbacks are Выкл.


Часовой пояс GMT +3, время: 05:23.