Вернуться   Нижегородский Форум Друзей > Обсуждаем и качаем > Музыка > Lossless > Электронная музыка > Chillout Zone Lossless
Забыли пароль? Регистрация




Ответ
 
Опции темы Опции просмотра
Старый 07.02.2009, 13:40   #1
Kamerad
 
Аватар для gramm
 
Регистрация: 16.08.2007
Пол: M
Сообщений: 499
Поблагодарил: 182
Поблагодарили 1,215 раз в 325 сообщениях
Открыли хайд :
0 в этом сообщении
119 Всего


Счастье [Ambient, Chillout, Downtempo, House] VA - Purobeach - Oasis Del Mar

V.A. - Purobeach - Oasis Del Mar - Volumen Uno © 2005

Artist: Various Artists
Title: Purobeach - Oasis Del Mar - Volumen Uno
Released: 2005
Format: Double Mixed Audio CD
Label: Seamless Recordings
Catalog#: SEAMCD005
Genre: Ambient | Chillout | ChillHouse | Downtempo | House
Total Size: 873.00 MB
Total Time: 2h 22' 44"
Bitrate: Flac 1.2.1 ~ 846-866 kbit/s (2-Mixed Track -.Flac + .cue + .log + Full Covers)


Tracklist Disc One "Dia" (compiled & Mixed By Ben Sowton):
01. Honeyroot - Summer Sky
02. Alex Cortiz - Ibiza Trumpet Thing
03. Tosca - Chocolate Elvis (Boozoo Bajou Soul Sufferer Version)
04. Phil Thurston - Moroccan Sauta
05. Soularis - Freeway Crazy P Sunset Mix)
06. Tosca - Worksong (Uptight Mix)
07. Alex Cortiz - Magic Touch
08. Patchwork - Deep Ocean
09. Bent - Exercise 4
10. Ross Couch - Una Para El Verano
11. S-Tone Inc - Venus
12. Coy Paez - Satisfaction
13. Coy Paez - Surfing the Skies
14. Resin Dogs - She's Gone (Kraak & Smaak Remix)
15. Molomekaniski pres. Karen Jo Fields - Young Woman


Tracklist Disc Two "Noche" (compiled & Mixed By Fabian Wetzel):
01. Natash McBeam - Visionary (Harley & Muscle Deep Mix)
02. Halo Featureing Atwater & Mr. V - Change (Vocal Mix)
03. DJ Ino Featuring YOIO C - It's Around (Vocal Mix)
04. Duron Tarik feat.Children Speak - Not Over (Instrumental)
05. Masterbuilders - Blend
06. Berreduar Productions - Running Away
07. Miguel Migs - Secrets
08. Jay-J & Halo Atwater With Latrice Barnett - Make My Heart (Main Vocal Mix)
09. Chuck Love - Spread the Love
10. Magik Johnson - Feel Alright (Vocal Mix)
11. Gaelle - Give it Back (Eric's Wollman Dub)
12. Li'sha Project - Feel


log cd1:
Exact Audio Copy V0.99 prebeta 4 from 23. January 2008

EAC extraction logfile from 1. February 2009, 21:00

Various / Purobeach - Oasis Del Mar - Vol.1 (Disc One)

Used drive : PIONEER DVD-RW DVR-112D Adapter: 1 ID: 0

Read mode : Secure
Utilize accurate stream : Yes
Defeat audio cache : Yes
Make use of C2 pointers : No

Read offset correction : 48
Overread into Lead-In and Lead-Out : No
Fill up missing offset samples with silence : Yes
Delete leading and trailing silent blocks : No
Null samples used in CRC calculations : Yes
Used interface : Installed external ASPI interface

Used output format : User Defined Encoder
Selected bitrate : 192 kBit/s
Quality : Low
Add ID3 tag : Yes
Command line compressor : C:\Program Files\E A C Audio\Flac\flac.exe
Additional command line options : -V -8 -T "artist=%a" -T "title=%t" -T "album=%g" -T "date=%y" -T "tracknumber=%n" -T "genre=%m" %s


TOC of the extracted CD

Track | Start | Length | Start sector | End sector
---------------------------------------------------------
1 | 0:00.00 | 6:50.54 | 0 | 30803
2 | 6:50.54 | 5:57.37 | 30804 | 57615
3 | 12:48.16 | 4:43.31 | 57616 | 78871
4 | 17:31.47 | 4:03.45 | 78872 | 97141
5 | 21:35.17 | 4:58.52 | 97142 | 119543
6 | 26:33.69 | 3:07.51 | 119544 | 133619
7 | 29:41.45 | 4:47.37 | 133620 | 155181
8 | 34:29.07 | 5:05.26 | 155182 | 178082
9 | 39:34.33 | 4:59.59 | 178083 | 200566
10 | 44:34.17 | 4:40.32 | 200567 | 221598
11 | 49:14.49 | 4:32.28 | 221599 | 242026
12 | 53:47.02 | 4:14.58 | 242027 | 261134
13 | 58:01.60 | 3:02.34 | 261135 | 274818
14 | 61:04.19 | 4:40.05 | 274819 | 295823
15 | 65:44.24 | 4:59.58 | 295824 | 318306


Range status and errors

Selected range

Filename G:\lossless-room.nnm.ru\Various - Purobeach - Oasis Del Mar - Vol.1\Various - Purobeach - Oasis Del Mar - Vol.1 (Disc One).wav

Peak level 98.8 %
Range quality 99.9 %
Test CRC 63BA46A4
Copy CRC 63BA46A4
Copy OK

No errors occurred


AccurateRip summary

Track 1 not present in database
Track 2 not present in database
Track 3 not present in database
Track 4 not present in database
Track 5 not present in database
Track 6 not present in database
Track 7 not present in database
Track 8 not present in database
Track 9 not present in database
Track 10 not present in database
Track 11 not present in database
Track 12 not present in database
Track 13 not present in database
Track 14 not present in database
Track 15 not present in database

None of the tracks are present in the AccurateRip database

End of status report

log cd2:
Exact Audio Copy V0.99 prebeta 4 from 23. January 2008

EAC extraction logfile from 1. February 2009, 21:31

Various / Purobeach - Oasis Del Mar - Vol.1 (Disc Two)

Used drive : PIONEER DVD-RW DVR-112D Adapter: 1 ID: 0

Read mode : Secure
Utilize accurate stream : Yes
Defeat audio cache : Yes
Make use of C2 pointers : No

Read offset correction : 48
Overread into Lead-In and Lead-Out : No
Fill up missing offset samples with silence : Yes
Delete leading and trailing silent blocks : No
Null samples used in CRC calculations : Yes
Used interface : Installed external ASPI interface

Used output format : User Defined Encoder
Selected bitrate : 192 kBit/s
Quality : Low
Add ID3 tag : Yes
Command line compressor : C:\Program Files\E A C Audio\Flac\flac.exe
Additional command line options : -V -8 -T "artist=%a" -T "title=%t" -T "album=%g" -T "date=%y" -T "tracknumber=%n" -T "genre=%m" %s


TOC of the extracted CD

Track | Start | Length | Start sector | End sector
---------------------------------------------------------
1 | 0:00.00 | 5:34.15 | 0 | 25064
2 | 5:34.15 | 6:01.07 | 25065 | 52146
3 | 11:35.22 | 7:56.59 | 52147 | 87905
4 | 19:32.06 | 6:08.21 | 87906 | 115526
5 | 25:40.27 | 5:34.14 | 115527 | 140590
6 | 31:14.41 | 5:53.29 | 140591 | 167094
7 | 37:07.70 | 5:57.19 | 167095 | 193888
8 | 43:05.14 | 6:01.05 | 193889 | 220968
9 | 49:06.19 | 6:08.57 | 220969 | 248625
10 | 55:15.01 | 6:23.48 | 248626 | 277398
11 | 61:38.49 | 5:05.66 | 277399 | 300339
12 | 66:44.40 | 5:14.70 | 300340 | 323959


Range status and errors

Selected range

Filename G:\lossless-room.nnm.ru\Various - Purobeach - Oasis Del Mar - Vol.1\Various - Purobeach - Oasis Del Mar - Vol.1 (Disc Two).wav

Peak level 98.8 %
Range quality 99.9 %
Test CRC 21A3B293
Copy CRC 21A3B293
Copy OK

No errors occurred


AccurateRip summary

Track 1 not present in database
Track 2 not present in database
Track 3 not present in database
Track 4 not present in database
Track 5 not present in database
Track 6 not present in database
Track 7 not present in database
Track 8 not present in database
Track 9 not present in database
Track 10 not present in database
Track 11 not present in database
Track 12 not present in database

None of the tracks are present in the AccurateRip database

End of status report

Скачать::
[Для просмотра данной ссылки нужно зарегистрироваться]
[Для просмотра данной ссылки нужно зарегистрироваться]
[Для просмотра данной ссылки нужно зарегистрироваться]
[Для просмотра данной ссылки нужно зарегистрироваться]
[Для просмотра данной ссылки нужно зарегистрироваться]
[Для просмотра данной ссылки нужно зарегистрироваться]
[Для просмотра данной ссылки нужно зарегистрироваться]
[Для просмотра данной ссылки нужно зарегистрироваться]
[Для просмотра данной ссылки нужно зарегистрироваться]
[Для просмотра данной ссылки нужно зарегистрироваться]
__________________
gramm вне форума  
Ответить с цитированием
Эти 3 пользователя(ей) сказали Спасибо gramm за это полезное сообщение:
Dyson (08.02.2009), gismo (17.02.2009), Евгений (07.02.2009)
Старый 09.02.2009, 20:26   #2
Kamerad
 
Аватар для gramm
 
Регистрация: 16.08.2007
Пол: M
Сообщений: 499
Поблагодарил: 182
Поблагодарили 1,215 раз в 325 сообщениях
Открыли хайд :
0 в этом сообщении
119 Всего


Счастье [Ambient, Chillout, Downtempo, House] VA - Purobeach - Oasis Del Mar

V.A. - Purobeach - Oasis Del Mar - Volumen Dos © 2006

Artist: Various Artists
Title: Purobeach - Oasis Del Mar - Volumen Dos
Released: 2006
Format: Double Mixed Audio CD
Label: Seamless Recordings
Catalog#: SEAMCD010
Genre: Ambient | Deep House | Downtempo | Trip Hop
Total Size: 883.00 MB
Total Time: 2h 19' 42"
Bitrate: Flac 1.2.1 ~ 859-908 kbit/s (2-Mixed Track -.Flac + .cue + .log + Full Covers)


Tracklist Disc One "Dia" (compiled & Mixed By Ben Sowton):
01. Lenell Brown - Relax To The Max (Chill mix)
02. Baul Dimension - Sonargaon
03. Jake Childs - Forgotten
04. Jeff Bennetts Lounge Experience - I Am
05. Lovers Lane - Island Memories (Original Mix)
06. El Kado - Caravane (Lezzi Baba remix)
07. Vanessa Daou - Passed
08. Jafrosax - Rollin
09. Peter Daou - Seventh Space
10. Dalminjo feat. Anja Oyen Vister - There Is A Light That Never Goes Out
11. Numaro - Basic
12. Akisy - My Love From Recife
13. Ikon - Calling You


Tracklist Disc Two "Noche" (compiled & Mixed By Fabian Wetzel):
01. Ananda Project - Secrets (Chris Brann remix)
02. Demarkus Lewis - Dance The Night Away
03. Marlon D feat Daneel - Taste (UC Thump mix)
04. Johnny Fiasco & Dizzy - Denver Blue (Fiasco remix)
05. At Jazz - Itґs Complete (Fred's Complete Vocal mix)
06. Fred Everytjing - Soulmates (Original mix)
07. Chuck Love - Set Me Free (Deep Vocal mix)
08. Spirit Catcher - Never Before (Original mix)
09. Christian Alvarez - Buscando (Richard Earnshaw remix)
10. Spiritchaser - Visions
11. Ross Couch - Got To Be Right
12. DJ Meri - Not A Dream (Original mix)


log cd1:
Exact Audio Copy V0.99 prebeta 4 from 23. January 2008

EAC extraction logfile from 1. February 2009, 22:11

Various / Various - Purobeach - Oasis Del Mar - Vol.2 (Disc One)

Used drive : PIONEER DVD-RW DVR-112D Adapter: 1 ID: 0

Read mode : Secure
Utilize accurate stream : Yes
Defeat audio cache : Yes
Make use of C2 pointers : No

Read offset correction : 48
Overread into Lead-In and Lead-Out : No
Fill up missing offset samples with silence : Yes
Delete leading and trailing silent blocks : No
Null samples used in CRC calculations : Yes
Used interface : Installed external ASPI interface

Used output format : User Defined Encoder
Selected bitrate : 192 kBit/s
Quality : Low
Add ID3 tag : Yes
Command line compressor : C:\Program Files\E A C Audio\Flac\flac.exe
Additional command line options : -V -8 -T "artist=%a" -T "title=%t" -T "album=%g" -T "date=%y" -T "tracknumber=%n" -T "genre=%m" %s


TOC of the extracted CD

Track | Start | Length | Start sector | End sector
---------------------------------------------------------
1 | 0:00.00 | 4:22.48 | 0 | 19697
2 | 4:22.48 | 5:22.06 | 19698 | 43853
3 | 9:44.54 | 5:07.21 | 43854 | 66899
4 | 14:52.00 | 5:39.16 | 66900 | 92340
5 | 20:31.16 | 4:52.73 | 92341 | 114313
6 | 25:24.14 | 3:55.42 | 114314 | 131980
7 | 29:19.56 | 5:35.63 | 131981 | 157168
8 | 34:55.44 | 5:14.71 | 157169 | 180789
9 | 40:10.40 | 4:45.54 | 180790 | 202218
10 | 44:56.19 | 4:46.02 | 202219 | 223670
11 | 49:42.21 | 4:32.34 | 223671 | 244104
12 | 54:14.55 | 8:23.18 | 244105 | 281847
13 | 62:37.73 | 6:31.17 | 281848 | 311189


Range status and errors

Selected range

Filename G:\lossless-room.nnm.ru\Various - Purobeach - Oasis Del Mar - Vol.2\Various - Purobeach - Oasis Del Mar - Vol.2 (Disc One).wav

Peak level 99.8 %
Range quality 100.0 %
Test CRC E164739D
Copy CRC E164739D
Copy OK

No errors occurred


AccurateRip summary

Track 1 not present in database
Track 2 not present in database
Track 3 not present in database
Track 4 not present in database
Track 5 not present in database
Track 6 not present in database
Track 7 not present in database
Track 8 not present in database
Track 9 not present in database
Track 10 not present in database
Track 11 not present in database
Track 12 not present in database
Track 13 not present in database

None of the tracks are present in the AccurateRip database

End of status report

log cd2:
Exact Audio Copy V0.99 prebeta 4 from 23. January 2008

EAC extraction logfile from 1. February 2009, 23:13

Various / Various - Purobeach - Oasis Del Mar - Vol.2 (Disc Two)

Used drive : PIONEER DVD-RW DVR-112D Adapter: 1 ID: 0

Read mode : Secure
Utilize accurate stream : Yes
Defeat audio cache : Yes
Make use of C2 pointers : No

Read offset correction : 48
Overread into Lead-In and Lead-Out : No
Fill up missing offset samples with silence : Yes
Delete leading and trailing silent blocks : No
Null samples used in CRC calculations : Yes
Used interface : Installed external ASPI interface

Used output format : User Defined Encoder
Selected bitrate : 192 kBit/s
Quality : Low
Add ID3 tag : Yes
Command line compressor : C:\Program Files\E A C Audio\Flac\flac.exe
Additional command line options : -V -8 -T "artist=%a" -T "title=%t" -T "album=%g" -T "date=%y" -T "tracknumber=%n" -T "genre=%m" %s


TOC of the extracted CD

Track | Start | Length | Start sector | End sector
---------------------------------------------------------
1 | 0:00.00 | 6:11.32 | 0 | 27856
2 | 6:11.32 | 5:04.57 | 27857 | 50713
3 | 11:16.14 | 8:13.60 | 50714 | 87748
4 | 19:29.74 | 5:40.16 | 87749 | 113264
5 | 25:10.15 | 5:50.55 | 113265 | 139569
6 | 31:00.70 | 6:05.54 | 139570 | 166998
7 | 37:06.49 | 4:53.25 | 166999 | 188998
8 | 41:59.74 | 5:46.50 | 188999 | 214998
9 | 47:46.49 | 5:04.58 | 214999 | 237856
10 | 52:51.32 | 6:28.42 | 237857 | 266998
11 | 59:19.74 | 5:49.39 | 266999 | 293212
12 | 65:09.38 | 5:22.67 | 293213 | 317429


Range status and errors

Selected range

Filename G:\lossless-room.nnm.ru\Various - Purobeach - Oasis Del Mar - Vol.2\Various - Purobeach - Oasis Del Mar - Vol.2 (Disc Two).wav

Peak level 98.8 %
Range quality 100.0 %
Test CRC C0643F16
Copy CRC C0643F16
Copy OK

No errors occurred


AccurateRip summary

Track 1 not present in database
Track 2 not present in database
Track 3 not present in database
Track 4 not present in database
Track 5 not present in database
Track 6 not present in database
Track 7 not present in database
Track 8 not present in database
Track 9 not present in database
Track 10 not present in database
Track 11 not present in database
Track 12 not present in database

None of the tracks are present in the AccurateRip database

End of status report

Скачать::
[Для просмотра данной ссылки нужно зарегистрироваться]
[Для просмотра данной ссылки нужно зарегистрироваться]
[Для просмотра данной ссылки нужно зарегистрироваться]
[Для просмотра данной ссылки нужно зарегистрироваться]
[Для просмотра данной ссылки нужно зарегистрироваться]
[Для просмотра данной ссылки нужно зарегистрироваться]
[Для просмотра данной ссылки нужно зарегистрироваться]
[Для просмотра данной ссылки нужно зарегистрироваться]
[Для просмотра данной ссылки нужно зарегистрироваться]
[Для просмотра данной ссылки нужно зарегистрироваться]
__________________
gramm вне форума  
Ответить с цитированием
Этот пользователь сказал Спасибо gramm за это полезное сообщение:
gismo (17.02.2009)
Ответ


Здесь присутствуют: 1 (пользователей: 0 , гостей: 1)
 
Опции темы
Опции просмотра

Ваши права в разделе
Вы не можете создавать новые темы
Вы не можете отвечать в темах
Вы не можете прикреплять вложения
Вы не можете редактировать свои сообщения

BB коды Вкл.
Смайлы Вкл.
[IMG] код Вкл.
HTML код Выкл.
Trackbacks are Выкл.
Pingbacks are Выкл.
Refbacks are Выкл.


Часовой пояс GMT +3, время: 08:06.