Вернуться   Нижегородский Форум Друзей > Обсуждаем и качаем > Музыка > Lossless > Электронная музыка > Chillout Zone Lossless
Забыли пароль? Регистрация




Ответ
 
Опции темы Опции просмотра
Старый 11.02.2009, 00:40   #1
Kamerad
 
Аватар для gramm
 
Регистрация: 16.08.2007
Пол: M
Сообщений: 499
Поблагодарил: 182
Поблагодарили 1,215 раз в 325 сообщениях
Открыли хайд :
0 в этом сообщении
119 Всего


Счастье [Lounge, Chillout, Downtempo] VA - Space Tranquil



Artist: Various Artists
Title: Space Tranquil
Released: 2006
Format: Unmixed Audio CD
Label: AZULI
Genre: Lounge | Chillout | ChillHouse | Downtempo
Size: 457MB
Bitrate: Flac (Flac + .cue + .log + Covers)



::Tracklist::
1. Danny Michel - Ashes To Ashes
2. Nitin Sawhney - Dead Man (Fink Mix)
3. The Funky Lowlives - Sail Into The Sun
4. S-Tone Inc Introduces Toco - Instalacao Do Samba
5. Max Sedgley - Slowly (Misterlong Mix)
6. Layo & Bushwacka Feat Ella Fitzgerald & Louis Armstrong - Isn't This A Lovely Day
7. Radio Citizen - Everything
8. Hessismore - Yes Boss
9. Sebastien Tellier - La Ritournelle (Mr Dan's Magic Wand Mix)
10. Nightmares On Wax - You Wish
11. William Pitt - City Lights
12. Kenneth Bager - Fragment One And I Kept Hearing
13. Atlantic Conveyor Feat Habibur Rohman - O.Y.S. (Night Train Mix)
14. Mint Royale - Dancehall Places (Grandadbob Comfy Cardy Mix)
15. Chris Coco Vs A Man Called Adam - Nadia
16. Patrick & Eugene - 59Th Street Bridge Song
17. Soulphiction - Intro
18. Frontera - Walking In The Rain


log:
Exact Audio Copy V0.99 prebeta 4 from 23. January 2008

EAC extraction logfile from 5. February 2009, 16:01

Various Artists / Space Tranquil

Used drive : HL-DT-STDVD-RAM GH15L Adapter: 3 ID: 0

Read mode : Secure
Utilize accurate stream : Yes
Defeat audio cache : No
Make use of C2 pointers : No

Combined read/write offset correction : 0
Overread into Lead-In and Lead-Out : No
Fill up missing offset samples with silence : Yes
Delete leading and trailing silent blocks : No
Null samples used in CRC calculations : No
Used interface : Native Win32 interface for Win NT & 2000

Used output format : User Defined Encoder
Selected bitrate : 768 kBit/s
Quality : High
Add ID3 tag : No
Command line compressor : C:\Program Files\Exact Audio Copy\FLAC\FLAC.EXE
Additional command line options : -6 -V -T "ARTIST=%a" -T "TITLE=%t" -T "ALBUM=%g" -T "DATE=%y" -T "TRACKNUMBER=%n" -T "GENRE=%m" -T "COMMENT=%e" %s -o %d


TOC of the extracted CD

Track | Start | Length | Start sector | End sector
---------------------------------------------------------
1 | 0:00.00 | 4:04.56 | 0 | 18355
2 | 4:04.56 | 5:57.66 | 18356 | 45196
3 | 10:02.47 | 4:38.08 | 45197 | 66054
4 | 14:40.55 | 3:23.08 | 66055 | 81287
5 | 18:03.63 | 4:22.52 | 81288 | 100989
6 | 22:26.40 | 3:46.13 | 100990 | 117952
7 | 26:12.53 | 3:52.31 | 117953 | 135383
8 | 30:05.09 | 5:01.26 | 135384 | 157984
9 | 35:06.35 | 3:14.35 | 157985 | 172569
10 | 38:20.70 | 3:25.63 | 172570 | 188007
11 | 41:46.58 | 3:31.21 | 188008 | 203853
12 | 45:18.04 | 5:52.16 | 203854 | 230269
13 | 51:10.20 | 6:02.08 | 230270 | 257427
14 | 57:12.28 | 4:27.05 | 257428 | 277457
15 | 61:39.33 | 5:23.49 | 277458 | 301731
16 | 67:03.07 | 2:47.13 | 301732 | 314269
17 | 69:50.20 | 2:14.15 | 314270 | 324334
18 | 72:04.35 | 4:56.05 | 324335 | 346539


Range status and errors

Selected range

Filename C:\temp\V.A. - Space Tranquil\Various Artists - Space Tranquil.wav

Peak level 95.5 %
Range quality 100.0 %
Copy CRC EA5E44FF
Copy OK

No errors occurred

End of status report

Скачать:


[Для просмотра данной ссылки нужно зарегистрироваться]
[Для просмотра данной ссылки нужно зарегистрироваться]
[Для просмотра данной ссылки нужно зарегистрироваться]
__________________
gramm вне форума  
Ответить с цитированием
Ответ


Здесь присутствуют: 1 (пользователей: 0 , гостей: 1)
 
Опции темы
Опции просмотра

Ваши права в разделе
Вы не можете создавать новые темы
Вы не можете отвечать в темах
Вы не можете прикреплять вложения
Вы не можете редактировать свои сообщения

BB коды Вкл.
Смайлы Вкл.
[IMG] код Вкл.
HTML код Выкл.
Trackbacks are Выкл.
Pingbacks are Выкл.
Refbacks are Выкл.


Часовой пояс GMT +3, время: 07:03.