Вернуться   Нижегородский Форум Друзей > Обсуждаем и качаем > Музыка > Lossless > Электронная музыка > Chillout Zone Lossless
Забыли пароль? Регистрация




Ответ
 
Опции темы Опции просмотра
Старый 01.02.2009, 16:31   #1
Power User
 
Аватар для toshi
 
Регистрация: 23.09.2008
Адрес: Сормово
Пол: M
Провайдер: Эр-Телеком
Сообщений: 1,304
Поблагодарил: 661
Поблагодарили 2,880 раз в 1,044 сообщениях
Открыли хайд :
6 в этом сообщении
3,238 Всего


Счастье [Downtempo] Stewart Walker

Grounded in Existance - 2005



Style: IDM, Downtempo
Released: 29 Apr 2005
Country: US
Label: Persona Records
Catalog#: PRS-014CD
Format: CD
Quality: FLAC, LOG, CUE Sheet; FLAC 1024 kbps;
Total Size 263 МБ

Tracklisting:

01. Orchestra (4:12)
02. Spearthrowing (6:02)
03. Footnote And Annotate (4:03)
04. Rein In Chaos (5:23)
05. Benstrumental (1:32)
06. Sprites (4:19)
07. Chimera (4:13)
08. Body House The Soul (4:12)
09. Our Best Work Is Behind Us (5:26)
10. We're All Falling Asleep (2:35)
11. Everything's... (5:12)

Log EAC:
Exact Audio Copy V0.99 prebeta 4 from 23. January 2008

EAC extraction logfile from 18. June 2008, 17:38

Stewart Walker / Grounded in Existance

Used drive : SONY CD-ROM CDU5215 Adapter: 0 ID: 1

Read mode : Secure
Utilize accurate stream : Yes
Defeat audio cache : Yes
Make use of C2 pointers : No

Read offset correction : 12
Overread into Lead-In and Lead-Out : No
Fill up missing offset samples with silence : Yes
Delete leading and trailing silent blocks : No
Null samples used in CRC calculations : Yes
Used interface : Native Win32 interface for Win NT & 2000

Used output format : User Defined Encoder
Selected bitrate : 1024 kBit/s
Quality : High
Add ID3 tag : No
Command line compressor : C:\Program Files\Exact Audio Copy\FLAC\FLAC.EXE
Additional command line options : -6 -V -T "ARTIST=%a" -T "TITLE=%t" -T "ALBUM=%g" -T "DATE=%y" -T "TRACKNUMBER=%n" -T "GENRE=%m" -T "COMMENT=%e" %s -o %d


TOC of the extracted CD

Track | Start | Length | Start sector | End sector
---------------------------------------------------------
1 | 0:00.00 | 4:12.28 | 0 | 18927
2 | 4:12.28 | 6:02.03 | 18928 | 46080
3 | 10:14.31 | 4:03.22 | 46081 | 64327
4 | 14:17.53 | 5:23.31 | 64328 | 88583
5 | 19:41.09 | 1:31.67 | 88584 | 95475
6 | 21:13.01 | 4:19.67 | 95476 | 114967
7 | 25:32.68 | 4:13.14 | 114968 | 133956
8 | 29:46.07 | 4:12.51 | 133957 | 152907
9 | 33:58.58 | 5:26.13 | 152908 | 177370
10 | 39:24.71 | 2:35.54 | 177371 | 189049
11 | 42:00.50 | 5:11.70 | 189050 | 212444


Range status and errors

Selected range

Filename D:\Muzon_E\?eiu\Stewart Walker\Stewart Walker - Grounded in Existance.wav

Peak level 100.0 %
Range quality 100.0 %
Test CRC 765B2068
Copy CRC 765B2068
Copy OK

No errors occurred


AccurateRip summary

Track 1 not present in database
Track 2 not present in database
Track 3 not present in database
Track 4 not present in database
Track 5 not present in database
Track 6 not present in database
Track 7 not present in database
Track 8 not present in database
Track 9 not present in database
Track 10 not present in database
Track 11 not present in database

None of the tracks are present in the AccurateRip database

End of status report


share.nnov

Чтобы увидеть скрытый текст Вам нужно нажать кнопочку "Открыть Hide"
У вас нет прав чтобы видеть скрытый текст, содержащийся здесь.
__________________
Подключайтесь к ДОМ.РУ!!!:
[Для просмотра данной ссылки нужно зарегистрироваться]
т.п. "Токио"
toshi вне форума  
Ответить с цитированием
Эти 2 пользователя(ей) сказали Спасибо toshi за это полезное сообщение:
Daffffka (01.02.2009), Евгений (05.02.2009)
Хайд открыли:
gudron (07.04.2009), Евгений (05.02.2009), Дмитрий (03.02.2009), z_VuK (03.02.2009), Daffffka (01.02.2009), seddrums (01.02.2009)
Ответ


Здесь присутствуют: 1 (пользователей: 0 , гостей: 1)
 
Опции темы
Опции просмотра

Ваши права в разделе
Вы не можете создавать новые темы
Вы не можете отвечать в темах
Вы не можете прикреплять вложения
Вы не можете редактировать свои сообщения

BB коды Вкл.
Смайлы Вкл.
[IMG] код Вкл.
HTML код Выкл.
Trackbacks are Выкл.
Pingbacks are Выкл.
Refbacks are Выкл.


Часовой пояс GMT +3, время: 19:22.