Вернуться   Нижегородский Форум Друзей > Обсуждаем и качаем > Музыка > Lossless > Hard Клуб > Black Metal Lossless
Забыли пароль? Регистрация



Black Metal Lossless Black Metal / Blackened Death / Raw / Depressive / Suicidal / Atmospheric / Melodic / Sympho / Industrial Black


Ответ
 
Опции темы Опции просмотра
Старый 22.09.2008, 11:41   #1
Продюсер
 
Аватар для Maniac
 
Регистрация: 19.09.2007
Пол: M
Провайдер: Dial-up
Сообщений: 3,323
Поблагодарил: 1,757
Поблагодарили 4,783 раз в 1,407 сообщениях
Открыли хайд :
0 в этом сообщении
5,329 Всего


По умолчанию [Black Death Metal] Belphegor

Цитата:
Седьмой диск записан в в Stage One Studios под руководством бывшего лидера. Лирика и концепция оформления инспирированы темой BDSM, а также жизнью и деятельностью Маркиза Де Сада. В музыкальном отношении это как всегда первоклассный блэк / дэт с кристально чистым звуком и зловещими сэмплами. Некоторые композиции исполнены на немецком языке.
Belphegor - Bondage Goat Zombie



Год: 2008
Стиль: Black Death Metal
Страна: Austria
Формат: APE + CUE
Размер: 319 Mb
Время: 40:01

Tracklist:

01. Bondage Goat Zombie
02. Stigma Diabolicum
03. Armageddon's Raid
04. Justine: Soaked In Blood
05. Sexdictator Lucifer
06. Shred For Sathan
07. Chronicles Of Crime
08. The Sukkubus Lustrate
09. Der Rutenmarsch

pass: haRD

Ссылки:
[Для просмотра данной ссылки нужно зарегистрироваться]
[Для просмотра данной ссылки нужно зарегистрироваться]
[Для просмотра данной ссылки нужно зарегистрироваться]
[Для просмотра данной ссылки нужно зарегистрироваться]
__________________

Последний раз редактировалось Maniac; 22.09.2008 в 12:16.
Maniac вне форума  
Ответить с цитированием
Эти 2 пользователя(ей) сказали Спасибо Maniac за это полезное сообщение:
Producer (15.10.2010), rol416 (01.10.2008)
Старый 22.09.2008, 19:41   #2
Дружище
 
Аватар для dying_inside
 
Регистрация: 21.12.2006
Пол: M
Провайдер: Стрим
Сообщений: 960
Поблагодарил: 4,777
Поблагодарили 1,524 раз в 555 сообщениях
Открыли хайд :
0 в этом сообщении
537 Всего


По умолчанию

пасиба, гуд альбум
dying_inside вне форума  
Ответить с цитированием
Старый 22.09.2008, 20:24   #3
Хороший Друг
 
Регистрация: 07.03.2008
Адрес: Everywhere
Пол: М
Провайдер: Другой
Сообщений: 462
Поблагодарил: 654
Поблагодарили 861 раз в 293 сообщениях
Открыли хайд :
0 в этом сообщении
960 Всего


По умолчанию

Maniac,

Спасибо. Уже слушал альбом в mp3. Очень понравился.

Кстати, а внутри архива лог файл есть?
Avelis вне форума  
Ответить с цитированием
Старый 22.09.2008, 20:30   #4
Дружище
 
Аватар для dying_inside
 
Регистрация: 21.12.2006
Пол: M
Провайдер: Стрим
Сообщений: 960
Поблагодарил: 4,777
Поблагодарили 1,524 раз в 555 сообщениях
Открыли хайд :
0 в этом сообщении
537 Всего


По умолчанию

Cosine, вот лог

Лог:
Отчёт EAC об извлечении, выполненном 21. апреля 2008, 15:40 для диска:
Belphegor / Bondage Goat Zombie

Дисковод: PLEXTOR DVDR PX-760A Adapter: 0 ID: 0
Режим чтения: Достоверный (C2: нет, Точный поток: да, Отключение кэша: да)
Коррекция смещения при чтении: 30
Способность читать области Lead-in и Lead-out : Нет

Выходной формат: C:\Program Files\Monkey's Audio\MAC.exe (Monkey's Audio (без потерь))
High Lossless Compression

Другие параметры:
Заполнение пропущенных сэмплов тишиной : Да
Удаление блоков с тишиной в начале и конце : Нет
Установленный внешний ASPI-интерфейс


Характеристики диапазона извлечения и сообщения об ошибках
Выбранный диапазон
Имя файла D:\MUSIC\Belphegor - Bondage Goat Zombie.wav

Пиковый уровень 99.8 %
Качество диапазона 100.0 %
CRC B174B817
Копирование... OK

Ошибок не произошло

Конец отчёта
dying_inside вне форума  
Ответить с цитированием
Старый 22.09.2008, 21:17   #5
Продюсер
 
Аватар для Maniac
 
Регистрация: 19.09.2007
Пол: M
Провайдер: Dial-up
Сообщений: 3,323
Поблагодарил: 1,757
Поблагодарили 4,783 раз в 1,407 сообщениях
Открыли хайд :
0 в этом сообщении
5,329 Всего


По умолчанию

Cosine, внутри есть апе,кью,лог, сканы.
__________________
Maniac вне форума  
Ответить с цитированием
Эти 2 пользователя(ей) сказали Спасибо Maniac за это полезное сообщение:
Producer (15.10.2010), rol416 (01.10.2008)
Старый 22.09.2008, 21:39   #6
Хороший Друг
 
Регистрация: 07.03.2008
Адрес: Everywhere
Пол: М
Провайдер: Другой
Сообщений: 462
Поблагодарил: 654
Поблагодарили 861 раз в 293 сообщениях
Открыли хайд :
0 в этом сообщении
960 Всего


По умолчанию

Ещё раз большое спасибо за Belphegor.

Теперь послушаю в lossless.
Avelis вне форума  
Ответить с цитированием
Старый 04.05.2009, 08:43   #7
Я тут новенький
 
Регистрация: 02.04.2009
Пол: M
Провайдер: ВТ
Сообщений: 5
Поблагодарил: 1
Поблагодарили 0 раз в 0 сообщениях
Открыли хайд :
0 в этом сообщении
0 Всего


По умолчанию

перезалейте, пожалуйста, ни юнн!
Neath вне форума  
Ответить с цитированием
Старый 24.10.2009, 14:37   #8
Продюсер
 
Аватар для Maniac
 
Регистрация: 19.09.2007
Пол: M
Провайдер: Dial-up
Сообщений: 3,323
Поблагодарил: 1,757
Поблагодарили 4,783 раз в 1,407 сообщениях
Открыли хайд :
2 в этом сообщении
5,329 Всего


По умолчанию

Belphegor - Walpurgis Rites - Hexenwahn



Year: 2009
Style: Black Death Metal
Country: Austria (Salzburg)
Audio: Flac (tracks)+Cue+Log+Covers
Size: 490.3 Mb
Label: Nuclear Blast [NB 2130-2]



Tracklist:
1. Walpurgis Rites
2. Veneratio Diaboli - I Am Sin
3. Hail The New Flesh
4. Reichswehr In Blood
5. The Crosses Made Of Bone
6. Der Geistertreiber
7. Destroyer Hekate
8. Enthralled Toxic Sabbat
9. Hexenwahn - Totenkult
===================
Полное время альбома: 39:23

LOG:
Exact Audio Copy V0.99 prebeta 4 from 23. January 2008

EAC extraction logfile from 20. October 2009, 19:27

Belphegor / Walpurgis Rites - Hexenwahn

Used drive : PIONEER DVD-RW DVR-109 Adapter: 1 ID: 0

Read mode : Secure
Utilize accurate stream : Yes
Defeat audio cache : Yes
Make use of C2 pointers : No

Read offset correction : 48
Overread into Lead-In and Lead-Out : No
Fill up missing offset samples with silence : Yes
Delete leading and trailing silent blocks : No
Null samples used in CRC calculations : Yes
Used interface : Native Win32 interface for Win NT & 2000
Gap handling : Appended to previous track

Used output format : Internal WAV Routines
Sample format : 44.100 Hz; 16 Bit; Stereo


TOC of the extracted CD

Track | Start | Length | Start sector | End sector
---------------------------------------------------------
1 | 0:00.00 | 3:08.64 | 0 | 14163
2 | 3:08.64 | 7:02.09 | 14164 | 45822
3 | 10:10.73 | 5:32.52 | 45823 | 70774
4 | 15:43.50 | 4:36.48 | 70775 | 91522
5 | 20:20.23 | 4:26.04 | 91523 | 111476
6 | 24:46.27 | 3:41.59 | 111477 | 128110
7 | 28:28.11 | 3:37.13 | 128111 | 144398
8 | 32:05.24 | 4:33.11 | 144399 | 164884
9 | 36:38.35 | 2:44.32 | 164885 | 177216


Track 1

Filename C:\Ripped CDs\Belphegor - 2009 - Walpurgis Rites - Hexenwahn\Belphegor - Walpurgis Rites - Hexenwahn - 01 - Walpurgis Rites.wav

Pre-gap length 0:00:02.00

Peak level 99.8 %
Track quality 100.0 %
Test CRC F8DA84AB
Copy CRC F8DA84AB
Track not present in AccurateRip database
Copy OK

Track 2

Filename C:\Ripped CDs\Belphegor - 2009 - Walpurgis Rites - Hexenwahn\Belphegor - Walpurgis Rites - Hexenwahn - 02 - Veneratio Diaboli - I Am Sin.wav

Peak level 99.8 %
Track quality 100.0 %
Test CRC 21E8F072
Copy CRC 21E8F072
Track not present in AccurateRip database
Copy OK

Track 3

Filename C:\Ripped CDs\Belphegor - 2009 - Walpurgis Rites - Hexenwahn\Belphegor - Walpurgis Rites - Hexenwahn - 03 - Hail The New Flesh.wav

Peak level 99.8 %
Track quality 100.0 %
Test CRC 8584C170
Copy CRC 8584C170
Track not present in AccurateRip database
Copy OK

Track 4

Filename C:\Ripped CDs\Belphegor - 2009 - Walpurgis Rites - Hexenwahn\Belphegor - Walpurgis Rites - Hexenwahn - 04 - Reichswehr In Blood.wav

Peak level 99.8 %
Track quality 100.0 %
Test CRC AB958F36
Copy CRC AB958F36
Track not present in AccurateRip database
Copy OK

Track 5

Filename C:\Ripped CDs\Belphegor - 2009 - Walpurgis Rites - Hexenwahn\Belphegor - Walpurgis Rites - Hexenwahn - 05 - The Crosses Made Of Bone.wav

Peak level 99.8 %
Track quality 100.0 %
Test CRC F3F13E0A
Copy CRC F3F13E0A
Track not present in AccurateRip database
Copy OK

Track 6

Filename C:\Ripped CDs\Belphegor - 2009 - Walpurgis Rites - Hexenwahn\Belphegor - Walpurgis Rites - Hexenwahn - 06 - Der Geistertreiber.wav

Peak level 99.8 %
Track quality 100.0 %
Test CRC 90E8C536
Copy CRC 90E8C536
Track not present in AccurateRip database
Copy OK

Track 7

Filename C:\Ripped CDs\Belphegor - 2009 - Walpurgis Rites - Hexenwahn\Belphegor - Walpurgis Rites - Hexenwahn - 07 - Destroyer Hekate.wav

Peak level 99.8 %
Track quality 99.9 %
Test CRC 85A0C096
Copy CRC 85A0C096
Track not present in AccurateRip database
Copy OK

Track 8

Filename C:\Ripped CDs\Belphegor - 2009 - Walpurgis Rites - Hexenwahn\Belphegor - Walpurgis Rites - Hexenwahn - 08 - Enthralled Toxic Sabbat.wav

Peak level 99.8 %
Track quality 100.0 %
Test CRC 836F36E0
Copy CRC 836F36E0
Track not present in AccurateRip database
Copy OK

Track 9

Filename C:\Ripped CDs\Belphegor - 2009 - Walpurgis Rites - Hexenwahn\Belphegor - Walpurgis Rites - Hexenwahn - 09 - Hexenwahn - Totenkult.wav

Peak level 99.8 %
Track quality 100.0 %
Test CRC F4012758
Copy CRC F4012758
Track not present in AccurateRip database
Copy OK


None of the tracks are present in the AccurateRip database

No errors occurred

End of status report


share.nnov
Чтобы увидеть скрытый текст Вам нужно нажать кнопочку "Открыть Hide"
У вас нет прав чтобы видеть скрытый текст, содержащийся здесь.


Последний раз редактировалось Maniac; 24.10.2009 в 14:42.
Maniac вне форума  
Ответить с цитированием
Эти 2 пользователя(ей) сказали Спасибо Maniac за это полезное сообщение:
Producer (15.10.2010), SuffoCore (30.10.2009)
Хайд открыли:
SuffoCore (30.10.2009), DreadMashine (30.10.2009)
Ответ

Метки
accuraterip, belphegor


Здесь присутствуют: 1 (пользователей: 0 , гостей: 1)
 
Опции темы
Опции просмотра

Ваши права в разделе
Вы не можете создавать новые темы
Вы не можете отвечать в темах
Вы не можете прикреплять вложения
Вы не можете редактировать свои сообщения

BB коды Вкл.
Смайлы Вкл.
[IMG] код Вкл.
HTML код Выкл.
Trackbacks are Выкл.
Pingbacks are Выкл.
Refbacks are Выкл.


Часовой пояс GMT +3, время: 06:12.