Вернуться   Нижегородский Форум Друзей > Обсуждаем и качаем > Музыка > Lossless > Hard Клуб > Black Metal Lossless
Забыли пароль? Регистрация



Black Metal Lossless Black Metal / Blackened Death / Raw / Depressive / Suicidal / Atmospheric / Melodic / Sympho / Industrial Black


Ответ
 
Опции темы Опции просмотра
Старый 19.11.2008, 08:55   #1
Огненный Бог Марранов
 
Аватар для Gentle_Giant
 
Регистрация: 01.09.2007
Адрес: Пьяный Угол
Пол: M
Сообщений: 508
Поблагодарил: 328
Поблагодарили 874 раз в 326 сообщениях
Открыли хайд :
3 в этом сообщении
464 Всего


По умолчанию [Viking / Black Metal] Enslaved

Enslaved

1997 - Eld
[Для просмотра данной ссылки нужно зарегистрироваться]
01. 793 (Slaget Om Lindisfarne) /16:11/
02. Hordalendingen /5:19/
03. Alfablot /6:33/
04. Kvasirs Blod /7:51/
05. For Lenge Siden /8:09/
06. Glemt /8:05/
07. Eld /6:36/
FLAC Image + .CUE
Лог EAC:
Код:
Exact Audio Copy V0.99 prebeta 4 from 23. January 2008

Отчёт EAC об извлечении, выполненном 19. ноября 2008, 5:41

Enslaved / Eld

Дисковод: Optiarc DVD RW AD-7170S   Adapter: 2  ID: 1

Режим чтения                 : Достоверность
Использование точного потока : Да
Отключение кэша аудио        : Да
Использование указателей C2  : Нет

Коррекция смещения при чтении                     : 48
Способность читать области Lead-in и Lead-out     : Нет
Заполнение пропущенных сэмплов тишиной            : Да
Удаление блоков с тишиной в начале и конце        : Нет
При вычислениях CRC использовались нулевые сэмплы : Да
Интерфейс                                         : Установленный внешний ASPI-интерфейс

Выходной формат : Внутренние WAV-операции
Формат сэмплов  : 44.100 Гц; 16 бит; стерео


TOC извлечённого CD

     Трек |   Старт  | Длительность | Начальный сектор | Конечный сектор 
    ---------------------------------------------------------------------
       1  |  0:00.00 |   16:10.49   |           0      |      72798      
       2  | 16:10.49 |    5:19.16   |       72799      |      96739      
       3  | 21:29.65 |    6:33.06   |       96740      |     126220      
       4  | 28:02.71 |    7:51.31   |      126221      |     161576      
       5  | 35:54.27 |    8:08.69   |      161577      |     198245      
       6  | 44:03.21 |    8:04.40   |      198246      |     234585      
       7  | 52:07.61 |    6:36.36   |      234586      |     264321      


Характеристики диапазона извлечения и сообщения об ошибках

Выбранный диапазон

     Имя файла D:\Exact Audio Copy\CDImage.wav

     Пиковый уровень 98.8 %
     Качество диапазона 100.0 %
     CRC копии AECAD301
     Копирование... OK

Ошибок не произошло

Конец отчёта

Лог AccurateRip:
Код:
CDImage.cue:

Checking AccurateRip database

URL: [Для просмотра данной ссылки нужно зарегистрироваться]
Track	Ripping Status		[Disc ID: 00119dbb-620dc407]

 1	Accurately Ripped    (confidence 4)     [4f1b2b98]
 2	Accurately Ripped    (confidence 4)     [ae597351]
 3	Accurately Ripped    (confidence 4)     [8375390a]
 4	Accurately Ripped    (confidence 4)     [9fb22e1a]
 5	Accurately Ripped    (confidence 4)     [e04e53c1]
 6	Accurately Ripped    (confidence 4)     [ee604560]
 7	Accurately Ripped    (confidence 4)     [ce3b536f]

_______________________

All Tracks Accurately Ripped.

Лог AudioChecker:
Код:
AUDIOCHECKER v2.0 beta (build 457) - by Dester - opdester@freemail.hu
~~~~~~~~~~~~~~~~~~~~~~~~~~~~~~~~~~
-=== DO NOT EDIT THIS FILE! ===-

Path: ...\1997-Eld

1 -=- CDImage.flac -=- CDDA (100%)

32314260


Забыл поправить cue после того, как кодировал рип во flac, так что в CDImage.cue нужно заменить FILE "CDImage.wav" WAVE на FILE "CDImage.flac" WAVE

Ссылка на скачивание с Share.NNov.Ru:
Чтобы увидеть скрытый текст Вам нужно нажать кнопочку "Открыть Hide"
У вас нет прав чтобы видеть скрытый текст, содержащийся здесь.
__________________
Любители потрековых lossless релизов — на самом деле латентные lossy-филы.
Gentle_Giant вне форума  
Ответить с цитированием
Эти 4 пользователя(ей) сказали Спасибо Gentle_Giant за это полезное сообщение:
Avelis (26.01.2009), barbariangoth (19.11.2008), dying_inside (19.11.2008), qwesderops (19.11.2008)
Хайд открыли:
qwesderops (19.11.2008), barbariangoth (19.11.2008), dying_inside (19.11.2008)
Старый 19.11.2008, 20:04   #2
Приятель
 
Аватар для qwesderops
 
Регистрация: 02.10.2008
Адрес: dzr
Пол: М
Провайдер: ВТ
Сообщений: 115
Поблагодарил: 121
Поблагодарили 212 раз в 58 сообщениях
Открыли хайд :
0 в этом сообщении
2 Всего


По умолчанию

Ещё лосей !!!
qwesderops вне форума  
Ответить с цитированием
Ответ


Здесь присутствуют: 1 (пользователей: 0 , гостей: 1)
 
Опции темы
Опции просмотра

Ваши права в разделе
Вы не можете создавать новые темы
Вы не можете отвечать в темах
Вы не можете прикреплять вложения
Вы не можете редактировать свои сообщения

BB коды Вкл.
Смайлы Вкл.
[IMG] код Вкл.
HTML код Выкл.
Trackbacks are Выкл.
Pingbacks are Выкл.
Refbacks are Выкл.


Часовой пояс GMT +3, время: 06:15.