Вернуться   Нижегородский Форум Друзей > Обсуждаем и качаем > Музыка > Lossless > Hard Клуб > Black Metal Lossless
Забыли пароль? Регистрация



Black Metal Lossless Black Metal / Blackened Death / Raw / Depressive / Suicidal / Atmospheric / Melodic / Sympho / Industrial Black


Ответ
 
Опции темы Опции просмотра
Старый 04.12.2008, 18:02   #1
Приятель
 
Аватар для qwesderops
 
Регистрация: 02.10.2008
Адрес: dzr
Пол: М
Провайдер: ВТ
Сообщений: 115
Поблагодарил: 121
Поблагодарили 212 раз в 58 сообщениях
Открыли хайд :
0 в этом сообщении
2 Всего


По умолчанию [Black Metal] Urgehal

Goatcraft Torment
[Для просмотра данной ссылки нужно зарегистрироваться]
Страна: Hønefoss, NORWAY
Жанр: Black Metal
Дата: 2006
Формат: FLAC (image + .cue)
Время: 51:21

Трэклист:

01. Goatcraft Torment 04:02
02. Risus Sardonius 05:16
03. Antireligiøs 06:17
04. Dødsmarsj til Helvete 04:20
05. Satanic Black Metal in Hell 04:35
06. Nefastus Nex Necis 05:52
07. Gathered under the Horns 05:10
08. Selvmordssalme 06:02
09. Sentiment of Chaos 02:45
10. Et Steg Nærmere Lucifer 07:00
LOG файл:
Exact Audio Copy V0.99 prebeta 4 from 23. January 2008

EAC extraction logfile from 25. July 2008, 17:58

Urgehal / Goatcraft Torment

Used drive : HL-DT-STDVD-ROM GDR8164B Adapter: 4 ID: 0

Read mode : Secure
Utilize accurate stream : Yes
Defeat audio cache : Yes
Make use of C2 pointers : No

Read offset correction : 102
Overread into Lead-In and Lead-Out : No
Fill up missing offset samples with silence : Yes
Delete leading and trailing silent blocks : No
Null samples used in CRC calculations : No
Used interface : Installed external ASPI interface

Used output format : User Defined Encoder
Selected bitrate : 32 kBit/s
Quality : High
Add ID3 tag : No
Command line compressor : C:\Program Files\FLAC\flac.exe
Additional command line options : -6 -V %s

TOC of the extracted CD

Track | Start | Length | Start sector | End sector
---------------------------------------------------------
1 | 0:00.00 | 4:02.41 | 0 | 18190
2 | 4:02.41 | 5:16.22 | 18191 | 41912
3 | 9:18.63 | 6:17.34 | 41913 | 70221
4 | 15:36.22 | 4:20.04 | 70222 | 89725
5 | 19:56.26 | 4:35.49 | 89726 | 110399
6 | 24:32.00 | 5:52.35 | 110400 | 136834
7 | 30:24.35 | 5:10.05 | 136835 | 160089
8 | 35:34.40 | 6:02.03 | 160090 | 187242
9 | 41:36.43 | 2:45.24 | 187243 | 199641
10 | 44:21.67 | 7:00.03 | 199642 | 231144

Range status and errors

Selected range

Filename D:\releases\Urgehal - Goatcraft Torment.wav

Peak level 100.0 %
Range quality 100.0 %
Copy CRC F6355217
Copy OK

No errors occurred

AccurateRip summary

Track 1 accurately ripped (confidence 1) [2EB1A557]
Track 2 accurately ripped (confidence 1) [B5927024]
Track 3 accurately ripped (confidence 1) [48B34353]
Track 4 accurately ripped (confidence 1) [2A257829]
Track 5 accurately ripped (confidence 1) [07AFFCEE]
Track 6 accurately ripped (confidence 1) [5B433A1B]
Track 7 accurately ripped (confidence 1) [67F148C9]
Track 8 accurately ripped (confidence 1) [D5798A2B]
Track 9 cannot be verified as accurate (confidence 1) [8FC7E8FC], AccurateRip returned [3FD00AFF]
Track 10 cannot be verified as accurate (confidence 1) [219C58F1], AccurateRip returned [6C6358F1]

8 track(s) accurately ripped
2 track(s) could not be verified as accurate

Some tracks could not be verified as accurate

End of status report

Ссылка для скачивания файла:
[Для просмотра данной ссылки нужно зарегистрироваться]
qwesderops вне форума  
Ответить с цитированием
Эти 3 пользователя(ей) сказали Спасибо qwesderops за это полезное сообщение:
barbariangoth (12.12.2008), dying_inside (04.12.2008), svartahrid (06.12.2008)
Ответ


Здесь присутствуют: 1 (пользователей: 0 , гостей: 1)
 
Опции темы
Опции просмотра

Ваши права в разделе
Вы не можете создавать новые темы
Вы не можете отвечать в темах
Вы не можете прикреплять вложения
Вы не можете редактировать свои сообщения

BB коды Вкл.
Смайлы Вкл.
[IMG] код Вкл.
HTML код Выкл.
Trackbacks are Выкл.
Pingbacks are Выкл.
Refbacks are Выкл.


Часовой пояс GMT +3, время: 17:34.