Вернуться   Нижегородский Форум Друзей > Обсуждаем и качаем > Музыка > Lossless > Hard Клуб > Black Metal Lossless
Забыли пароль? Регистрация



Black Metal Lossless Black Metal / Blackened Death / Raw / Depressive / Suicidal / Atmospheric / Melodic / Sympho / Industrial Black


Ответ
 
Опции темы Опции просмотра
Старый 20.12.2008, 07:22   #1
Приятель
 
Аватар для qwesderops
 
Регистрация: 02.10.2008
Адрес: dzr
Пол: М
Провайдер: ВТ
Сообщений: 115
Поблагодарил: 121
Поблагодарили 212 раз в 58 сообщениях
Открыли хайд :
0 в этом сообщении
2 Всего


По умолчанию [Black Metal] Baptism

Baptism - Grim Arts Of Melancholy 2008

[Для просмотра данной ссылки нужно зарегистрироваться]

Треклист:
1. A Dream of War and Illumination (9:09)
2. Only Death (5:19)
3. Malicious Rites (5:07)
4. In This Painful Life (9:17)
5. True Devotion (6:27)
6. Depressed Void (5:34)
7. Flames (6:42)
8. Melancholy of a Journeying Soul (8:46)
*************************
Полное время альбома: 56:21
EAC Log::
Exact Audio Copy V0.99 prebeta 4 from 23. January 2008

Отчёт EAC об извлечении, выполненном 25. октября 2008, 22:14

Baptism / Grim Arts Of Melancholy

Дисковод: HL-DT-STDVDRAM_GSA-H60N Adapter: 2 ID: 0

Режим чтения : Достоверность
Использование точного потока : Да
Отключение кэша аудио : Да
Использование указателей C2 : Нет

Коррекция смещения при чтении : 48
Способность читать области Lead-in и Lead-out : Нет
Заполнение пропущенных сэмплов тишиной : Да
Удаление блоков с тишиной в начале и конце : Нет
При вычислениях CRC использовались нулевые сэмплы : Да
Интерфейс : Установленный внешний ASPI-интерфейс

Выходной формат : Пользовательский кодировщик
Выбранный битрейт : 1024 kBit/s
Качество : Высокий
Добавление ID3-тэга : Да
Утилита сжатия : C:\Program Files\Exact Audio Copy\Flac\flac.exe
Дополнительные параметры : --best -V -T "date=%y" -T "genre=%m" %s


TOC извлечённого CD

Трек | Старт | Длительность | Начальный сектор | Конечный сектор
---------------------------------------------------------------------
1 | 0:00.00 | 9:09.57 | 0 | 41231
2 | 9:09.57 | 5:18.74 | 41232 | 65155
3 | 14:28.56 | 5:07.42 | 65156 | 88222
4 | 19:36.23 | 9:16.73 | 88223 | 129995
5 | 28:53.21 | 6:26.63 | 129996 | 159008
6 | 35:20.09 | 5:34.09 | 159009 | 184067
7 | 40:54.18 | 6:41.70 | 184068 | 214212
8 | 47:36.13 | 8:46.11 | 214213 | 253673


Характеристики диапазона извлечения и сообщения об ошибках

Выбранный диапазон

Имя файла M:\LOSSLESS\Baptism - Grim Arts Of Melancholy.wav

Пиковый уровень 100.0 %
Качество диапазона 99.9 %
CRC копии 0D55EA9E
Копирование... OK

Ошибок не произошло

Конец отчёта


Ссылка для скачивания файла:
[Для просмотра данной ссылки нужно зарегистрироваться]
qwesderops вне форума  
Ответить с цитированием
Ответ


Здесь присутствуют: 1 (пользователей: 0 , гостей: 1)
 
Опции темы
Опции просмотра

Ваши права в разделе
Вы не можете создавать новые темы
Вы не можете отвечать в темах
Вы не можете прикреплять вложения
Вы не можете редактировать свои сообщения

BB коды Вкл.
Смайлы Вкл.
[IMG] код Вкл.
HTML код Выкл.
Trackbacks are Выкл.
Pingbacks are Выкл.
Refbacks are Выкл.


Часовой пояс GMT +3, время: 17:57.