Вернуться   Нижегородский Форум Друзей > Обсуждаем и качаем > Музыка > Lossless > Hard Клуб > Black Metal Lossless
Забыли пароль? Регистрация



Black Metal Lossless Black Metal / Blackened Death / Raw / Depressive / Suicidal / Atmospheric / Melodic / Sympho / Industrial Black


Ответ
 
Опции темы Опции просмотра
Старый 31.12.2008, 17:08   #1
Приятель
 
Аватар для qwesderops
 
Регистрация: 02.10.2008
Адрес: dzr
Пол: М
Провайдер: ВТ
Сообщений: 115
Поблагодарил: 121
Поблагодарили 212 раз в 58 сообщениях
Открыли хайд :
0 в этом сообщении
2 Всего


По умолчанию [black metal] Svartahrid

Svartahrid Forthcoming Storm
[Для просмотра данной ссылки нужно зарегистрироваться]

*Год: 1999
*Стиль: Black Metal
*Страна: Norway

1. Atter Et Rike 05:52
2. Faustbitten 03:32
3. Lagnaden 03:58
4. Forthcoming Storm 04:41
5. Sjelefall 03:41
6. Under Den Enoydes Trone 03:37
7. Herskende I Blod 04:17
8. Stier Av Hat 03:44
9. Gods Of War 02:46
10. Lords Mystery 05:36

EAC Log ::
Exact Audio Copy V0.99 prebeta 4 from 23. January 2008

EAC extraction logfile from 21. December 2008, 10:45

Svartahrid / Forthcoming Storm

Used drive : TSSTcorpCDDVDW SH-S223F Adapter: 0 ID: 0

Read mode : Secure
Utilize accurate stream : Yes
Defeat audio cache : Yes
Make use of C2 pointers : No

Read offset correction : 6
Overread into Lead-In and Lead-Out : No
Fill up missing offset samples with silence : Yes
Delete leading and trailing silent blocks : No
Null samples used in CRC calculations : Yes
Used interface : Installed external ASPI interface

Used output format : User Defined Encoder
Selected bitrate : 128 kBit/s
Quality : High
Add ID3 tag : No
Command line compressor : C:\Program\Exact Audio Copy\WavPack\wavpack.exe
Additional command line options : -w "Artist=%a" -w "Title=%t" -w "Album=%g" -w "Year=%y" -w "Track=%n" -w "Genre=%m" -h -m %s %d


TOC of the extracted CD

Track | Start | Length | Start sector | End sector
---------------------------------------------------------
1 | 0:00.00 | 5:52.54 | 0 | 26453
2 | 5:52.54 | 3:32.39 | 26454 | 42392
3 | 9:25.18 | 3:58.45 | 42393 | 60287
4 | 13:23.63 | 4:41.11 | 60288 | 81373
5 | 18:04.74 | 3:41.71 | 81374 | 98019
6 | 21:46.70 | 3:37.44 | 98020 | 114338
7 | 25:24.39 | 4:17.65 | 114339 | 133678
8 | 29:42.29 | 3:44.15 | 133679 | 150493
9 | 33:26.44 | 2:46.14 | 150494 | 162957
10 | 36:12.58 | 5:36.56 | 162958 | 188213


Range status and errors

Selected range

Filename E:\Svartahrid - Forthcoming Storm.wav

Peak level 100.0 %
Range quality 100.0 %
Copy CRC 18E62010
Copy OK

No errors occurred


AccurateRip summary

Track 1 accurately ripped (confidence 4) [66EA568F]
Track 2 accurately ripped (confidence 4) [9F446FA3]
Track 3 accurately ripped (confidence 4) [AD2E0B06]
Track 4 accurately ripped (confidence 4) [33E00948]
Track 5 accurately ripped (confidence 4) [55B1C04E]
Track 6 accurately ripped (confidence 4) [27773F22]
Track 7 accurately ripped (confidence 4) [CE8CBC61]
Track 8 accurately ripped (confidence 4) [42ACBE7B]
Track 9 accurately ripped (confidence 4) [47A6E9DF]
Track 10 accurately ripped (confidence 4) [03650B1B]

All tracks accurately ripped

End of status report



Ссылка для скачивания файла:
[Для просмотра данной ссылки нужно зарегистрироваться]
qwesderops вне форума  
Ответить с цитированием
Эти 2 пользователя(ей) сказали Спасибо qwesderops за это полезное сообщение:
barbariangoth (03.01.2009), dying_inside (01.01.2009)
Ответ


Здесь присутствуют: 1 (пользователей: 0 , гостей: 1)
 
Опции темы
Опции просмотра

Ваши права в разделе
Вы не можете создавать новые темы
Вы не можете отвечать в темах
Вы не можете прикреплять вложения
Вы не можете редактировать свои сообщения

BB коды Вкл.
Смайлы Вкл.
[IMG] код Вкл.
HTML код Выкл.
Trackbacks are Выкл.
Pingbacks are Выкл.
Refbacks are Выкл.


Часовой пояс GMT +3, время: 18:23.