Вернуться   Нижегородский Форум Друзей > Обсуждаем и качаем > Музыка > Lossless > Hard Клуб > Black Metal Lossless
Забыли пароль? Регистрация



Black Metal Lossless Black Metal / Blackened Death / Raw / Depressive / Suicidal / Atmospheric / Melodic / Sympho / Industrial Black


Ответ
 
Опции темы Опции просмотра
Старый 04.01.2009, 11:00   #1
Приятель
 
Аватар для qwesderops
 
Регистрация: 02.10.2008
Адрес: dzr
Пол: М
Провайдер: ВТ
Сообщений: 115
Поблагодарил: 121
Поблагодарили 212 раз в 58 сообщениях
Открыли хайд :
0 в этом сообщении
2 Всего


По умолчанию [Black metal] Abyssic Hate

[Для просмотра данной ссылки нужно зарегистрироваться]

Альбом: Suicidal Emotions
Год: 2000
Стиль: Black Metal
Страна: Australia

Треклист:
1. Depression: Part I 12:37
2. Betrayed 11:43
3. Depression: Part II 07:23
4. Despondency 17:33
*************************
Полное время альбома: 49:18

Отчёт EAC:
Exact Audio Copy V0.99 prebeta 1 from 25. May 2007

Отчёт EAC об извлечении, выполненном 26. апреля 2008, 12:53

Abyssic Hate / Suicidal Emotions

Дисковод: Optiarc DVD RW AD-7200S Adapter: 0 ID: 0

Режим чтения : Достоверность
Использование точного потока : Да
Отключение кэша аудио : Нет
Использование указателей C2 : Да

Коррекция смещения при чтении : 48
Способность читать области Lead-in и Lead-out : Нет
Заполнение пропущенных сэмплов тишиной : Да
Удаление блоков с тишиной в начале и конце : Нет
Интерфейс : Установленный внешний ASPI-интерфейс

Выходной формат : Monkey's Audio Lossless Encoder v3.99 DLL
Формат сэмплов : High Lossless Compression


TOC извлечённого CD

Трек | Старт | Длительность | Начальный сектор | Конечный сектор
---------------------------------------------------------------------
1 | 0:00.00 | 12:39.03 | 0 | 56927
2 | 12:39.03 | 11:44.15 | 56928 | 109742
3 | 24:23.18 | 7:23.68 | 109743 | 143035
4 | 31:47.11 | 17:32.03 | 143036 | 221938


Характеристики диапазона извлечения и сообщения об ошибках

Выбранный диапазон

Имя файла G:\Abyssic Hate - Suicidal Emotions'2000\Abyssic Hate - Suicidal Emotions.ape

Пиковый уровень 100.0 %
Качество диапазона 100.0 %
CRC копии D025D253
Копирование... OK


AccurateRip: сводка

Трек 1 нет в базе данных
Трек 2 нет в базе данных
Трек 3 нет в базе данных
Трек 4 нет в базе данных

Ошибок не произошло

Конец отчёта


Ссылка для скачивания файла:
[Для просмотра данной ссылки нужно зарегистрироваться]
qwesderops вне форума  
Ответить с цитированием
Эти 2 пользователя(ей) сказали Спасибо qwesderops за это полезное сообщение:
dying_inside (04.01.2009), lady_in_black (08.01.2009)
Ответ


Здесь присутствуют: 1 (пользователей: 0 , гостей: 1)
 
Опции темы
Опции просмотра

Ваши права в разделе
Вы не можете создавать новые темы
Вы не можете отвечать в темах
Вы не можете прикреплять вложения
Вы не можете редактировать свои сообщения

BB коды Вкл.
Смайлы Вкл.
[IMG] код Вкл.
HTML код Выкл.
Trackbacks are Выкл.
Pingbacks are Выкл.
Refbacks are Выкл.


Часовой пояс GMT +3, время: 17:03.