Вернуться   Нижегородский Форум Друзей > Обсуждаем и качаем > Музыка > Lossless > Hard Клуб > Black Metal Lossless
Забыли пароль? Регистрация



Black Metal Lossless Black Metal / Blackened Death / Raw / Depressive / Suicidal / Atmospheric / Melodic / Sympho / Industrial Black


Ответ
 
Опции темы Опции просмотра
Старый 10.01.2009, 10:23   #1
Огненный Бог Марранов
 
Аватар для Gentle_Giant
 
Регистрация: 01.09.2007
Адрес: Пьяный Угол
Пол: M
Сообщений: 508
Поблагодарил: 328
Поблагодарили 874 раз в 326 сообщениях
Открыли хайд :
10 в этом сообщении
464 Всего


По умолчанию [Black Metal] Mütiilation / Mutiilation

Mütiilation

1999 - Remains Of A Ruined, Dead, Cursed Soul
[Для просмотра данной ссылки нужно зарегистрироваться]
01. Suffer The Gestalt /3:29/
02. To The Memory Of The Dark Countess /6:33/
03. Possessed And Immortal /7:26/
04. Through The Funeral Maelstrom Of Evil /8:39/
05. Travels To Sadness, Hate & Depression /7:54/
06. The Fear That Freeze /3:50/
07. Holocaust In Mourning Dawn (French Version) /5:16/
Формат: FLAC tracks, lossless
Лог EAC:
Код:
EAC extraction logfile from 28. December 2008, 18:28 for CD
Mьtiilation / Remains of a Ruined, Dead, Cursed Soul

Used drive  : HL-DT-STRW/DVD GCC-4521B   Adapter: 0  ID: 1
Read mode   : Secure with NO C2, accurate stream, NO disable cache
Read offset correction : 6
Overread into Lead-In and Lead-Out : No

Used output format : C:\Program Files\FLAC\flac.exe   (User Defined Encoder)
                     192 kBit/s
                     Additional command line options : -V -8 -T "artist=%a" -T "title=%t" -T "album=%g" -T "date=%y" -T "tracknumber=%n" -T "genre=%m" %s

Other options      : 
    Fill up missing offset samples with silence : Yes
    Delete leading and trailing silent blocks : No
    Native Win32 interface for Win NT & 2000


Track  1
     Filename E:\01 - Track01.wav

     Pre-gap length  0:00:02.00

     Peak level 99.9 %
     Track quality 100.0 %
     Test CRC CA80017A
     Copy CRC CA80017A
     Copy OK

Track  2
     Filename E:\02 - Track02.wav

     Peak level 99.9 %
     Track quality 99.9 %
     Test CRC FF66FCEA
     Copy CRC FF66FCEA
     Copy OK

Track  3
     Filename E:\03 - Track03.wav

     Peak level 99.9 %
     Track quality 100.0 %
     Test CRC 873BF13D
     Copy CRC 873BF13D
     Copy OK

Track  4
     Filename E:\04 - Track04.wav

     Peak level 99.9 %
     Track quality 99.9 %
     Test CRC B98E7EF3
     Copy CRC B98E7EF3
     Copy OK

Track  5
     Filename E:\05 - Track05.wav

     Peak level 99.9 %
     Track quality 99.9 %
     Test CRC D346F5AE
     Copy CRC D346F5AE
     Copy OK

Track  6
     Filename E:\06 - Track06.wav

     Peak level 99.9 %
     Track quality 100.0 %
     Test CRC F7EE1176
     Copy CRC F7EE1176
     Copy OK

Track  7
     Filename E:\07 - Track07.wav

     Peak level 99.9 %
     Track quality 100.0 %
     Test CRC 808F4E91
     Copy CRC 808F4E91
     Copy OK

No errors occured


End of status report


Ссылка на скачивание с Files.UNN.Ru (294 МБ):
Чтобы увидеть скрытый текст Вам нужно нажать кнопочку "Открыть Hide"
У вас нет прав чтобы видеть скрытый текст, содержащийся здесь.
__________________
Любители потрековых lossless релизов — на самом деле латентные lossy-филы.
Gentle_Giant вне форума  
Ответить с цитированием
Эти 7 пользователя(ей) сказали Спасибо Gentle_Giant за это полезное сообщение:
ACHERON (10.01.2009), Avelis (12.01.2009), barbariangoth (23.01.2009), dying_inside (10.01.2009), mezzo (11.01.2009), Nephilim (21.01.2009), qwesderops (10.01.2009)
Хайд открыли:
ns8814 (09.01.2010), utaravin (13.09.2009), Neath (31.07.2009), barbariangoth (23.01.2009), Nephilim (21.01.2009), Avelis (12.01.2009), mezzo (11.01.2009), ACHERON (10.01.2009), qwesderops (10.01.2009), dying_inside (10.01.2009)
Старый 10.01.2009, 12:38   #2
Огненный Бог Марранов
 
Аватар для Gentle_Giant
 
Регистрация: 01.09.2007
Адрес: Пьяный Угол
Пол: M
Сообщений: 508
Поблагодарил: 328
Поблагодарили 874 раз в 326 сообщениях
Открыли хайд :
7 в этом сообщении
464 Всего


По умолчанию

2001 - Black Millenium (Grimly Reborn)
[Для просмотра данной ссылки нужно зарегистрироваться]
01. The Eggs Of Melancholy /5:21/
02. New False Prophet /6:59/
03. The Hanged Priest /5:12/
04. Curse My Funeral /3:53/
05. Inferi Ira Ductus /5:17/
06. A Dream /2:00/
07. Black Millenium /5:00/
08. No Mercy For Humans /4:19/
09. Black As Lead And Death /5:23/
10. Outro /0:44/
Формат: APE Image +.CUE, lossless
Релиз от [Для просмотра данной ссылки нужно зарегистрироваться]
Лог EAC:
Код:
EAC extraction logfile from 31. January 2007, 9:25 for CD
Mьtiilation / Black Millenium (Grimly Reborn)

Used drive  : HL-DT-STDVDRRW GSA-2164D   Adapter: 4  ID: 0
Read mode   : Secure with NO C2, accurate stream, disable cache
Read offset correction : 102
Overread into Lead-In and Lead-Out : No

Used output format : Internal WAV Routines
                     44.100 Hz; 16 Bit; Stereo

Other options      : 
    Fill up missing offset samples with silence : Yes
    Delete leading and trailing silent blocks : No
    Native Win32 interface for Win NT & 2000


Range status and errors
Selected range
     Filename D:\Lphant mъsica\Mutiilation\Mьtiilation - Black Millenium (Grimly Reborn).wav

     Peak level 99.2 %
     Range quality 100.0 %
     CRC 77016CA9
     Copy OK

No errors occured

End of status report


Ссылка на скачивание с Files.UNN.Ru (338 МБ):
Чтобы увидеть скрытый текст Вам нужно нажать кнопочку "Открыть Hide"
У вас нет прав чтобы видеть скрытый текст, содержащийся здесь.
__________________
Любители потрековых lossless релизов — на самом деле латентные lossy-филы.
Gentle_Giant вне форума  
Ответить с цитированием
Эти 6 пользователя(ей) сказали Спасибо Gentle_Giant за это полезное сообщение:
Avelis (12.01.2009), barbariangoth (23.01.2009), dying_inside (10.01.2009), mezzo (11.01.2009), Nephilim (21.01.2009), qwesderops (10.01.2009)
Хайд открыли:
barbariangoth (23.01.2009), Nephilim (21.01.2009), Avelis (12.01.2009), mezzo (11.01.2009), ACHERON (10.01.2009), qwesderops (10.01.2009), dying_inside (10.01.2009)
Старый 10.01.2009, 14:43   #3
Дружище
 
Аватар для dying_inside
 
Регистрация: 21.12.2006
Пол: M
Провайдер: Стрим
Сообщений: 960
Поблагодарил: 4,777
Поблагодарили 1,524 раз в 555 сообщениях
Открыли хайд :
6 в этом сообщении
537 Всего


По умолчанию

1995 - Vampires of Black Imperial Blood



Tracklist:

1. Magical Shadows Of A Tragic Past
2. Born Under The Master's Spell
3. Ravens Of My Funeral
4. Black Imperial Blood
5. Eternal Empire Of Majesty Death
6. Transylvania
7. Under Ardailles Night
8. Tears Of A Melancholic Vampire

Лог Audiochecker:
AUDIOCHECKER v2.0 beta (build 457) - by Dester - opdester@freemail.hu
~~~~~~~~~~~~~~~~~~~~~~~~~~~~~~~~~~
-=== DO NOT EDIT THIS FILE! ===-

Path: ...\1995 - Vampires of Black Imperial Blood

1 -=- 01-Magical shadows of a tragic past.flac -=- CDDA (100%)
2 -=- 02-Born under the master's spell.flac -=- CDDA (100%)
3 -=- 03-Ravens of my funeral.flac -=- CDDA (100%)
4 -=- 04-Black imperial blood.flac -=- CDDA (100%)
5 -=- 05-Eternal empire of majesty death.flac -=- CDDA (100%)
6 -=- 06-Transylvania.flac -=- CDDA (100%)
7 -=- 07-Under Ardailles night.flac -=- CDDA (100%)
8 -=- 08-Tears of a melancholic vampire.flac -=- CDDA (100%)

Summary 100,00% CDDA

251231636


FLAC (tracks); share.nnov; unn:
Чтобы увидеть скрытый текст Вам нужно нажать кнопочку "Открыть Hide"
У вас нет прав чтобы видеть скрытый текст, содержащийся здесь.

dying_inside вне форума  
Ответить с цитированием
Эти 6 пользователя(ей) сказали Спасибо dying_inside за это полезное сообщение:
ACHERON (10.01.2009), Avelis (12.01.2009), barbariangoth (23.01.2009), mezzo (11.01.2009), Nephilim (22.01.2009), qwesderops (10.01.2009)
Хайд открыли:
degeren (03.04.2011), barbariangoth (23.01.2009), Nephilim (22.01.2009), Avelis (12.01.2009), mezzo (11.01.2009), ACHERON (10.01.2009)
Старый 11.01.2009, 09:36   #4
Огненный Бог Марранов
 
Аватар для Gentle_Giant
 
Регистрация: 01.09.2007
Адрес: Пьяный Угол
Пол: M
Сообщений: 508
Поблагодарил: 328
Поблагодарили 874 раз в 326 сообщениях
Открыли хайд :
8 в этом сообщении
464 Всего


По умолчанию

2003 - Majestas Leprosus
[Для просмотра данной ссылки нужно зарегистрироваться]
01. Introducing The Plague /0:26/
02. Tormenting My Nights /8:15/
03. Destroy Your Life For Satan /5:35/
04. Bitterness Bloodred /5:54/
05. Majestas Leprosus /3:18/
06. Beyond The Decay Of Time And Flies /6:36/
07. The Ugliness Inside /6:02/
08. If Those Walls Could Speak /7:47/
09. Worlds Of Evil /1:18/
Формат: APE Image +.CUE, lossless
Релиз от [Для просмотра данной ссылки нужно зарегистрироваться]
Лог EAC:
Код:
EAC extraction logfile from 1. February 2007, 12:28 for CD
Mьtiilation / Majestas Leprosus

Used drive  : HL-DT-STDVDRRW GSA-2164D   Adapter: 4  ID: 0
Read mode   : Secure with NO C2, accurate stream, disable cache
Read offset correction : 102
Overread into Lead-In and Lead-Out : No

Used output format : Internal WAV Routines
                     44.100 Hz; 16 Bit; Stereo

Other options      : 
    Fill up missing offset samples with silence : Yes
    Delete leading and trailing silent blocks : No
    Native Win32 interface for Win NT & 2000


Range status and errors
Selected range
     Filename D:\Lphant mъsica\Mutiilation\Mьtiilation - Majestas Leprosus.wav

     Peak level 87.4 %
     Range quality 100.0 %
     CRC F7EF59FA
     Copy OK

No errors occured

End of status report


Ссылка на скачивание с Files.UNN.Ru (357 МБ):
Чтобы увидеть скрытый текст Вам нужно нажать кнопочку "Открыть Hide"
У вас нет прав чтобы видеть скрытый текст, содержащийся здесь.
__________________
Любители потрековых lossless релизов — на самом деле латентные lossy-филы.
Gentle_Giant вне форума  
Ответить с цитированием
Эти 6 пользователя(ей) сказали Спасибо Gentle_Giant за это полезное сообщение:
ACHERON (04.08.2009), Avelis (12.01.2009), barbariangoth (23.01.2009), dying_inside (11.01.2009), mezzo (11.01.2009), Nephilim (21.01.2009)
Хайд открыли:
degeren (03.04.2011), ACHERON (04.08.2009), barbariangoth (23.01.2009), Nephilim (21.01.2009), Avelis (12.01.2009), qwesderops (11.01.2009), mezzo (11.01.2009), dying_inside (11.01.2009)
Старый 11.01.2009, 13:02   #5
Огненный Бог Марранов
 
Аватар для Gentle_Giant
 
Регистрация: 01.09.2007
Адрес: Пьяный Угол
Пол: M
Сообщений: 508
Поблагодарил: 328
Поблагодарили 874 раз в 326 сообщениях
Открыли хайд :
8 в этом сообщении
464 Всего


По умолчанию

2004 - Rattenkönig
[Для просмотра данной ссылки нужно зарегистрироваться]
01. That Night When I Died /6:46/
02. Testimony Of A Sick Brain /4:57/
03. The Bitter Taste Of Emotional Void /7:34/
04. Black Coma /4:18/
05. The Pact (The Eye of the Jackal) /6:49/
06. The Ecstatix Spiral of Hell /4:36/
07. I, Satan's Carrion /5:25/
08. Rattenkönig /7:23/
Формат: FLAC Tracks
Лог fooCDtect:
Код:
fooCDtect - foobar2000 + auCDtect, baralgin.

auCDtect: CD records authenticity detector, version 0.8.2
Copyright (c) 2004 Oleg Berngardt. All rights reserved.
Copyright (c) 2004 Alexander Djourik. All rights reserved.

     mode: 0

=======================================================
    Track: 1 That Night When I Died

Processing file:	[1 That Night When I Died.aucdtect]
Detected average hi-boundary frequency: 2.060643e+004 Hz
Detected average lo-boundary frequency: 1.438058e+004 Hz
Detected average hi-cut frequency: 2.184691e+004 Hz
Detected average lo-cut frequency: 1.672198e+004 Hz
Maximum probablis boundary frequency: 2.189100e+004 Hz
Coefficient of nonlinearity of a phase: 9.549884e-002
First order smothness: 3.867416e-001
Second order smothness: 5.326774e-001

------------------------------------------------------------
This track looks like CDDA with probability 100%

=======================================================
    Track: 2 Testimony of a Sick Brain

Processing file:	[2 Testimony of a Sick Brain.aucdtect]
Detected average hi-boundary frequency: 2.080918e+004 Hz
Detected average lo-boundary frequency: 1.467372e+004 Hz
Detected average hi-cut frequency: 2.183074e+004 Hz
Detected average lo-cut frequency: 1.652946e+004 Hz
Maximum probablis boundary frequency: 2.189100e+004 Hz
Coefficient of nonlinearity of a phase: 2.471962e-001
First order smothness: 4.118024e-001
Second order smothness: 4.429121e-001

------------------------------------------------------------
This track looks like CDDA with probability 100%

=======================================================
    Track: 3 The Bitter Taste of Emotional Void

Processing file:	[3 The Bitter Taste of Emotional Void.aucdtect]
Detected average hi-boundary frequency: 2.053152e+004 Hz
Detected average lo-boundary frequency: 1.430334e+004 Hz
Detected average hi-cut frequency: 2.187533e+004 Hz
Detected average lo-cut frequency: 1.560297e+004 Hz
Maximum probablis boundary frequency: 2.189100e+004 Hz
Coefficient of nonlinearity of a phase: 1.444266e-001
First order smothness: 3.922468e-001
Second order smothness: 3.874531e-001

------------------------------------------------------------
This track looks like CDDA with probability 100%

=======================================================
    Track: 4 Black Coma

Processing file:	[4 Black Coma.aucdtect]
Detected average hi-boundary frequency: 2.062914e+004 Hz
Detected average lo-boundary frequency: 1.475610e+004 Hz
Detected average hi-cut frequency: 2.186804e+004 Hz
Detected average lo-cut frequency: 1.699949e+004 Hz
Maximum probablis boundary frequency: 2.189100e+004 Hz
Coefficient of nonlinearity of a phase: 2.067232e-001
First order smothness: 3.878012e-001
Second order smothness: 4.992470e-001

------------------------------------------------------------
This track looks like CDDA with probability 100%

=======================================================
    Track: 5 The Pact (The Eye of the Jackal)

Processing file:	[5 The Pact (The Eye of the Jackal).aucdtect]
Detected average hi-boundary frequency: 2.071708e+004 Hz
Detected average lo-boundary frequency: 1.502142e+004 Hz
Detected average hi-cut frequency: 2.183581e+004 Hz
Detected average lo-cut frequency: 1.603484e+004 Hz
Maximum probablis boundary frequency: 2.189100e+004 Hz
Coefficient of nonlinearity of a phase: 1.124327e-001
First order smothness: 4.232731e-001
Second order smothness: 4.631433e-001

------------------------------------------------------------
This track looks like CDDA with probability 100%

=======================================================
    Track: 6 The Ecstatix Spiral of Hell

Processing file:	[6 The Ecstatix Spiral of Hell.aucdtect]
Detected average hi-boundary frequency: 2.057075e+004 Hz
Detected average lo-boundary frequency: 1.436399e+004 Hz
Detected average hi-cut frequency: 2.184188e+004 Hz
Detected average lo-cut frequency: 1.620579e+004 Hz
Maximum probablis boundary frequency: 2.189100e+004 Hz
Coefficient of nonlinearity of a phase: 1.243446e-001
First order smothness: 4.098532e-001
Second order smothness: 3.962264e-001

------------------------------------------------------------
This track looks like CDDA with probability 99%

=======================================================
    Track: 7 I, Satan's Carrion

Processing file:	[7 I, Satan's Carrion.aucdtect]
Detected average hi-boundary frequency: 2.049096e+004 Hz
Detected average lo-boundary frequency: 1.430418e+004 Hz
Detected average hi-cut frequency: 2.187432e+004 Hz
Detected average lo-cut frequency: 1.645336e+004 Hz
Maximum probablis boundary frequency: 2.189100e+004 Hz
Coefficient of nonlinearity of a phase: 1.257508e-001
First order smothness: 3.662261e-001
Second order smothness: 4.008811e-001

------------------------------------------------------------
This track looks like CDDA with probability 100%

=======================================================
    Track: 8 Rattenkönig

Processing file:	[temp-E26F2BD1258E67CBB59ED69885E56BC6.aucdtect]
Detected average hi-boundary frequency: 2.061844e+004 Hz
Detected average lo-boundary frequency: 1.465313e+004 Hz
Detected average hi-cut frequency: 2.185060e+004 Hz
Detected average lo-cut frequency: 1.592305e+004 Hz
Maximum probablis boundary frequency: 2.189100e+004 Hz
Coefficient of nonlinearity of a phase: 2.138121e-001
First order smothness: 3.925646e-001
Second order smothness: 4.625079e-001

------------------------------------------------------------
This track looks like CDDA with probability 100%

=======================================================


Ссылка на скачивание с Files.UNN.Ru (336 МБ):
Чтобы увидеть скрытый текст Вам нужно нажать кнопочку "Открыть Hide"
У вас нет прав чтобы видеть скрытый текст, содержащийся здесь.
__________________
Любители потрековых lossless релизов — на самом деле латентные lossy-филы.

Последний раз редактировалось Gentle_Giant; 11.01.2009 в 20:51.
Gentle_Giant вне форума  
Ответить с цитированием
Эти 7 пользователя(ей) сказали Спасибо Gentle_Giant за это полезное сообщение:
ACHERON (04.08.2009), Avelis (12.01.2009), barbariangoth (23.01.2009), dying_inside (11.01.2009), mezzo (11.01.2009), Nephilim (21.01.2009), qwesderops (13.01.2009)
Хайд открыли:
degeren (03.04.2011), ACHERON (04.08.2009), barbariangoth (23.01.2009), Nephilim (21.01.2009), Avelis (12.01.2009), qwesderops (11.01.2009), dying_inside (11.01.2009), mezzo (11.01.2009)
Старый 11.01.2009, 15:06   #6
Знакомый
 
Аватар для mezzo
 
Регистрация: 01.06.2008
Пол: М
Провайдер: Сэнди
Сообщений: 65
Поблагодарил: 196
Поблагодарили 66 раз в 20 сообщениях
Открыли хайд :
0 в этом сообщении
0 Всего


По умолчанию

Rattenkönig '04 архив битый(
mezzo вне форума  
Ответить с цитированием
Старый 11.01.2009, 16:36   #7
Приятель
 
Аватар для qwesderops
 
Регистрация: 02.10.2008
Адрес: dzr
Пол: М
Провайдер: ВТ
Сообщений: 115
Поблагодарил: 121
Поблагодарили 212 раз в 58 сообщениях
Открыли хайд :
0 в этом сообщении
2 Всего


По умолчанию

А Mutiilation - 2007 - Sorrow Galaxies никто не богат ?
qwesderops вне форума  
Ответить с цитированием
Старый 11.01.2009, 20:51   #8
Огненный Бог Марранов
 
Аватар для Gentle_Giant
 
Регистрация: 01.09.2007
Адрес: Пьяный Угол
Пол: M
Сообщений: 508
Поблагодарил: 328
Поблагодарили 874 раз в 326 сообщениях
Открыли хайд :
0 в этом сообщении
464 Всего


По умолчанию

Цитата:
Сообщение от mezzo Посмотреть сообщение
Rattenkönig '04 архив битый(
Перезалил.
__________________
Любители потрековых lossless релизов — на самом деле латентные lossy-филы.
Gentle_Giant вне форума  
Ответить с цитированием
Старый 11.01.2009, 21:57   #9
Дружище
 
Аватар для dying_inside
 
Регистрация: 21.12.2006
Пол: M
Провайдер: Стрим
Сообщений: 960
Поблагодарил: 4,777
Поблагодарили 1,524 раз в 555 сообщениях
Открыли хайд :
0 в этом сообщении
537 Всего


По умолчанию

Цитата:
Сообщение от mezzo Посмотреть сообщение
Rattenkönig '04 архив битый(
а у меня норм разархивировалось
dying_inside вне форума  
Ответить с цитированием
Старый 11.01.2009, 22:13   #10
Знакомый
 
Аватар для mezzo
 
Регистрация: 01.06.2008
Пол: М
Провайдер: Сэнди
Сообщений: 65
Поблагодарил: 196
Поблагодарили 66 раз в 20 сообщениях
Открыли хайд :
0 в этом сообщении
0 Всего


По умолчанию

Странно, я два раза перескачивал в разные места, оба раза архив не доразархивировывался.
mezzo вне форума  
Ответить с цитированием
Старый 13.01.2009, 12:39   #11
Приятель
 
Аватар для qwesderops
 
Регистрация: 02.10.2008
Адрес: dzr
Пол: М
Провайдер: ВТ
Сообщений: 115
Поблагодарил: 121
Поблагодарили 212 раз в 58 сообщениях
Открыли хайд :
0 в этом сообщении
2 Всего


По умолчанию

разархивировалось нормально
qwesderops вне форума  
Ответить с цитированием
Старый 28.07.2009, 18:50   #12
Огненный Бог Марранов
 
Аватар для Gentle_Giant
 
Регистрация: 01.09.2007
Адрес: Пьяный Угол
Пол: M
Сообщений: 508
Поблагодарил: 328
Поблагодарили 874 раз в 326 сообщениях
Открыли хайд :
3 в этом сообщении
464 Всего


По умолчанию

Mütiilation: 1994 - Hail Satanas We Are The Black Legions (EP) [2009 Reissue]

01. Desecrate Jesus Name /5:38/
02. Rememberance Of My Past Battles And Times /4:31/
03. Black Wind Of War /4:12/
Формат: FLAC Image + CUE, lossless
Отчет CUETools:
Код:
[Verification date: 11.07.2009 22:24:08]
[Disc ID: 00021177-0006cd94-19035c03]
Track	[ CRC    ] Status
 01	[9a06c016] (01/01) Accurately ripped as in pressing(s) #1
 02	[0f93aafc] (01/01) Accurately ripped as in pressing(s) #1
 03	[60fbeaa7] (01/01) Accurately ripped as in pressing(s) #1

Track	[ CRC32  ]	[W/O NULL]	
 --	[F092B793]	[8D8C6F34]	
 01	[F9CF4776]	[434344C8]	
 02	[235CBF6F]	[0A34BBDC]	
 03	[A295D4F6]	[B2A9EA95]

Отчет fooCDtect:
Код:
fooCDtect - foobar2000 + auCDtect, baralgin.

auCDtect: CD records authenticity detector, version 0.8.2
Copyright (c) 2004 Oleg Berngardt. All rights reserved.
Copyright (c) 2004 Alexander Djourik. All rights reserved.

     mode: 0

=======================================================
    Track: 1 Desecrate Jesus Name

Processing file:	[1 Desecrate Jesus Name.aucdtect]
Detected average hi-boundary frequency: 1.644038e+004 Hz
Detected average lo-boundary frequency: 1.528645e+004 Hz
Detected average hi-cut frequency: 1.683702e+004 Hz
Detected average lo-cut frequency: 1.546542e+004 Hz
Maximum probablis boundary frequency: 1.534500e+004 Hz
Coefficient of nonlinearity of a phase: 4.875278e-003
First order smothness: 9.306261e-001
Second order smothness: 7.453469e-001

------------------------------------------------------------
This track looks like MPEG with probability 95%

=======================================================
    Track: 2 Rememberance Of My Past Battles And Times

Processing file:	[2 Rememberance Of My Past Battles And Times.aucdtect]
Detected average hi-boundary frequency: 1.761874e+004 Hz
Detected average lo-boundary frequency: 1.531774e+004 Hz
Detected average hi-cut frequency: 1.738533e+004 Hz
Detected average lo-cut frequency: 1.537462e+004 Hz
Maximum probablis boundary frequency: 1.534500e+004 Hz
Coefficient of nonlinearity of a phase: 5.868947e-003
First order smothness: 9.089317e-001
Second order smothness: 7.761821e-001


------------------------------------------------------------
This track looks like MPEG with probability 95%

=======================================================
    Track: 3 Black Wind Of War

Processing file:	[3 Black Wind Of War.aucdtect]
Detected average hi-boundary frequency: 1.781702e+004 Hz
Detected average lo-boundary frequency: 1.532857e+004 Hz
Detected average hi-cut frequency: 1.735677e+004 Hz
Detected average lo-cut frequency: 1.551332e+004 Hz
Maximum probablis boundary frequency: 1.536700e+004 Hz
Coefficient of nonlinearity of a phase: 1.533878e-002
First order smothness: 8.781308e-001
Second order smothness: 7.738318e-001

------------------------------------------------------------
This track looks like MPEG with probability 95%

=======================================================


Примечания: Отчета EAC нет, результат проверки auCDtect не радует. Контрольная сумма F092B793 совпадает с [Для просмотра данной ссылки нужно зарегистрироваться].

Ссылка на скачивание с Files.UNN.Ru (84,1 МБ):
Чтобы увидеть скрытый текст Вам нужно нажать кнопочку "Открыть Hide"
У вас нет прав чтобы видеть скрытый текст, содержащийся здесь.
__________________
Любители потрековых lossless релизов — на самом деле латентные lossy-филы.
Gentle_Giant вне форума  
Ответить с цитированием
Эти 2 пользователя(ей) сказали Спасибо Gentle_Giant за это полезное сообщение:
dying_inside (28.07.2009), Nephilim (30.07.2009)
Хайд открыли:
death.chem (01.09.2009), Nephilim (30.07.2009), dying_inside (28.07.2009)
Старый 28.07.2009, 19:11   #13
Огненный Бог Марранов
 
Аватар для Gentle_Giant
 
Регистрация: 01.09.2007
Адрес: Пьяный Угол
Пол: M
Сообщений: 508
Поблагодарил: 328
Поблагодарили 874 раз в 326 сообщениях
Открыли хайд :
0 в этом сообщении
464 Всего


По умолчанию



[Для просмотра данной ссылки нужно зарегистрироваться] (10,8 МБ, JPG Scans)
__________________
Любители потрековых lossless релизов — на самом деле латентные lossy-филы.
Gentle_Giant вне форума  
Ответить с цитированием
Эти 2 пользователя(ей) сказали Спасибо Gentle_Giant за это полезное сообщение:
dying_inside (28.07.2009), Nephilim (30.07.2009)
Ответ


Здесь присутствуют: 1 (пользователей: 0 , гостей: 1)
 
Опции темы
Опции просмотра

Ваши права в разделе
Вы не можете создавать новые темы
Вы не можете отвечать в темах
Вы не можете прикреплять вложения
Вы не можете редактировать свои сообщения

BB коды Вкл.
Смайлы Вкл.
[IMG] код Вкл.
HTML код Выкл.
Trackbacks are Выкл.
Pingbacks are Выкл.
Refbacks are Выкл.


Часовой пояс GMT +3, время: 05:30.