Вернуться   Нижегородский Форум Друзей > Обсуждаем и качаем > Музыка > Lossless > Hard Клуб > Black Metal Lossless
Забыли пароль? Регистрация



Black Metal Lossless Black Metal / Blackened Death / Raw / Depressive / Suicidal / Atmospheric / Melodic / Sympho / Industrial Black


Ответ
 
Опции темы Опции просмотра
Старый 26.02.2009, 16:59   #1
Приятель
 
Аватар для qwesderops
 
Регистрация: 02.10.2008
Адрес: dzr
Пол: М
Провайдер: ВТ
Сообщений: 115
Поблагодарил: 121
Поблагодарили 212 раз в 58 сообщениях
Открыли хайд :
0 в этом сообщении
2 Всего


По умолчанию [Black Metal] Breath of Sorrows

Breath of Sorrows - Through Darkness To Battle I Ride

[Для просмотра данной ссылки нужно зарегистрироваться]

flac + cue

1. Night of The Broken Glass 06:03
2. Deprive My Thoughts 04:53
3. Slow Form of Suicide 05:37
4. Through Darkness To Battle I Ride 05:36
5. Sea of Solitude 05:15
6. Drowning In Abyssic Despair 06:57
7. Night of The Vampire (Roky Erickson cover) 04:32
8. Black Ash (Mist of Night) 04:00
9. Fragment's of Life Lost In Empty Battefields 06:37
10. Depths And Solitude 02:59
11. War Cries (Battlefield of Scars) 04:11
12. Come Forth (Like the Winds Beneath Me) 02:35
13. Outro 04:59

...истошный, истеричный, безысходный...

EAC extraction logfile:
Exact Audio Copy V0.99 prebeta 4 from 23. January 2008

EAC extraction logfile from 17. December 2008, 16:19

Breath of Sorrows / Through Darkness To Battle I Ride

Used drive : TEAC CD-W516EB Adapter: 4 ID: 0

Read mode : Secure
Utilize accurate stream : Yes
Defeat audio cache : Yes
Make use of C2 pointers : No

Read offset correction : 685
Overread into Lead-In and Lead-Out : No
Fill up missing offset samples with silence : Yes
Delete leading and trailing silent blocks : No
Null samples used in CRC calculations : Yes
Used interface : Installed external ASPI interface

Used output format : User Defined Encoder
Selected bitrate : 32 kBit/s
Quality : High
Add ID3 tag : No
Command line compressor : C:\Program Files\Exact Audio Copy\FLAC.EXE
Additional command line options : -V -8 -T "artist=%a" -T "title=%t" -T "album=%g" -T "date=%y" -T "tracknumber=%n" -T "genre=%m" %s


TOC of the extracted CD

Track | Start | Length | Start sector | End sector
---------------------------------------------------------
1 | 0:00.00 | 6:02.11 | 0 | 27160
2 | 6:02.11 | 4:52.59 | 27161 | 49119
3 | 10:54.70 | 5:36.01 | 49120 | 74320
4 | 16:30.71 | 5:35.54 | 74321 | 99499
5 | 22:06.50 | 5:13.34 | 99500 | 123008
6 | 27:20.09 | 6:57.07 | 123009 | 154290
7 | 34:17.16 | 4:31.16 | 154291 | 174631
8 | 38:48.32 | 4:00.16 | 174632 | 192647
9 | 42:48.48 | 6:35.52 | 192648 | 222324
10 | 49:24.25 | 2:58.50 | 222325 | 235724
11 | 52:23.00 | 4:10.58 | 235725 | 254532
12 | 56:33.58 | 2:34.29 | 254533 | 266111
13 | 59:08.12 | 4:58.15 | 266112 | 288476


Range status and errors

Selected range

Filename C:\CD\Rips\Breath of Sorrows - Through Darkness To Battle I Ride (2005)\Breath of Sorrows - Through Darkness To Battle I Ride.wav

Peak level 100.0 %
Range quality 100.0 %
Copy CRC 94431A3C
Copy OK

No errors occurred


AccurateRip summary

Track 1 accurately ripped (confidence 2) [536E96C6]
Track 2 accurately ripped (confidence 2) [EA0CA4EC]
Track 3 accurately ripped (confidence 2) [CCE122F4]
Track 4 accurately ripped (confidence 2) [9BC511AB]
Track 5 not present in database
Track 6 not present in database
Track 7 not present in database
Track 8 not present in database
Track 9 not present in database
Track 10 not present in database
Track 11 not present in database
Track 12 not present in database
Track 13 not present in database

4 track(s) accurately ripped
9 track(s) not present in the AccurateRip database

Some tracks could not be verified as accurate

End of status report


Ссылка для скачивания файла:
[Для просмотра данной ссылки нужно зарегистрироваться]
qwesderops вне форума  
Ответить с цитированием
Эти 3 пользователя(ей) сказали Спасибо qwesderops за это полезное сообщение:
barbariangoth (06.03.2009), dying_inside (26.02.2009), Qwenn (03.03.2009)
Ответ


Здесь присутствуют: 1 (пользователей: 0 , гостей: 1)
 
Опции темы
Опции просмотра

Ваши права в разделе
Вы не можете создавать новые темы
Вы не можете отвечать в темах
Вы не можете прикреплять вложения
Вы не можете редактировать свои сообщения

BB коды Вкл.
Смайлы Вкл.
[IMG] код Вкл.
HTML код Выкл.
Trackbacks are Выкл.
Pingbacks are Выкл.
Refbacks are Выкл.


Часовой пояс GMT +3, время: 06:05.