Вернуться   Нижегородский Форум Друзей > Обсуждаем и качаем > Музыка > Lossless > Hard Клуб > Black Metal Lossless
Забыли пароль? Регистрация



Black Metal Lossless Black Metal / Blackened Death / Raw / Depressive / Suicidal / Atmospheric / Melodic / Sympho / Industrial Black


Ответ
 
Опции темы Опции просмотра
Старый 26.02.2009, 21:20   #1
Приятель
 
Аватар для qwesderops
 
Регистрация: 02.10.2008
Адрес: dzr
Пол: М
Провайдер: ВТ
Сообщений: 115
Поблагодарил: 121
Поблагодарили 212 раз в 58 сообщениях
Открыли хайд :
0 в этом сообщении
2 Всего


По умолчанию [Black Metal] Nocturnal Depression

Nocturnal Depression

Four Seasons To A Depression


[Для просмотра данной ссылки нужно зарегистрироваться]

Год: 2006
Стиль: Depressive Black Metal
Страна: France

1. Fjaer (spring) 10:48
2. Sommer (summer) 08:49
3. Host (autumn) 09:01
4. Vinter (winter) 10:08

Flac + cue

EAC extraction logfile:
Exact Audio Copy V0.99 prebeta 4 from 23. January 2008

EAC extraction logfile from 17. February 2009, 2:22

Nocturnal Depression / Four Seasons To A Depression

Used drive : TSSTcorpCDDVDW SH-S223F Adapter: 2 ID: 0

Read mode : Secure
Utilize accurate stream : Yes
Defeat audio cache : Yes
Make use of C2 pointers : No

Read offset correction : 6
Overread into Lead-In and Lead-Out : No
Fill up missing offset samples with silence : Yes
Delete leading and trailing silent blocks : No
Null samples used in CRC calculations : Yes
Used interface : Installed external ASPI interface
Gap handling : Appended to previous track

Used output format : User Defined Encoder
Selected bitrate : 32 kBit/s
Quality : High
Add ID3 tag : No
Command line compressor : C:\Program Files\Exact Audio Copy\FLAC.EXE
Additional command line options : -V -8 -T "artist=%a" -T "title=%t" -T "album=%g" -T "date=%y" -T "tracknumber=%n" -T "genre=%m" %s


TOC of the extracted CD

Track | Start | Length | Start sector | End sector
---------------------------------------------------------
1 | 0:00.00 | 10:34.69 | 0 | 47618
2 | 10:34.69 | 8:16.62 | 47619 | 84880
3 | 18:51.56 | 8:30.35 | 84881 | 123165
4 | 27:22.16 | 9:23.35 | 123166 | 165425
5 | 39:17.51 | 38:52.66 | 176826 | 351791


Track 1

Filename C:\CD\Rips\Nocturnal Depression - Four Seasons To A Depression (2007)_FLAC\01 - Spring.wav

Pre-gap length 0:00:02.00

Peak level 100.0 %
Track quality 99.9 %
Test CRC D1DE6760
Copy CRC D1DE6760
Track not present in AccurateRip database
Copy OK

Track 2

Filename C:\CD\Rips\Nocturnal Depression - Four Seasons To A Depression (2007)_FLAC\02 - Summer.wav

Peak level 100.0 %
Track quality 100.0 %
Test CRC 973C1AC4
Copy CRC 973C1AC4
Track not present in AccurateRip database
Copy OK

Track 3

Filename C:\CD\Rips\Nocturnal Depression - Four Seasons To A Depression (2007)_FLAC\03 - Autumn.wav

Peak level 100.0 %
Track quality 100.0 %
Test CRC 268919E2
Copy CRC 268919E2
Track not present in AccurateRip database
Copy OK

Track 4

Filename C:\CD\Rips\Nocturnal Depression - Four Seasons To A Depression (2007)_FLAC\04 - Winter.wav

Peak level 100.0 %
Track quality 100.0 %
Test CRC 5DFEA2E2
Copy CRC 5DFEA2E2
Track not present in AccurateRip database
Copy OK


None of the tracks are present in the AccurateRip database

No errors occurred

End of status report


Ссылка для скачивания файла:
[Для просмотра данной ссылки нужно зарегистрироваться]
qwesderops вне форума  
Ответить с цитированием
Эти 3 пользователя(ей) сказали Спасибо qwesderops за это полезное сообщение:
ACHERON (27.02.2009), barbariangoth (06.03.2009), dying_inside (26.02.2009)
Ответ


Здесь присутствуют: 1 (пользователей: 0 , гостей: 1)
 
Опции темы
Опции просмотра

Ваши права в разделе
Вы не можете создавать новые темы
Вы не можете отвечать в темах
Вы не можете прикреплять вложения
Вы не можете редактировать свои сообщения

BB коды Вкл.
Смайлы Вкл.
[IMG] код Вкл.
HTML код Выкл.
Trackbacks are Выкл.
Pingbacks are Выкл.
Refbacks are Выкл.


Часовой пояс GMT +3, время: 05:52.