Вернуться   Нижегородский Форум Друзей > Обсуждаем и качаем > Музыка > Lossless > Hard Клуб > Black Metal Lossless
Забыли пароль? Регистрация



Black Metal Lossless Black Metal / Blackened Death / Raw / Depressive / Suicidal / Atmospheric / Melodic / Sympho / Industrial Black


Ответ
 
Опции темы Опции просмотра
Старый 03.03.2009, 15:03   #1
Приятель
 
Аватар для qwesderops
 
Регистрация: 02.10.2008
Адрес: dzr
Пол: М
Провайдер: ВТ
Сообщений: 115
Поблагодарил: 121
Поблагодарили 212 раз в 58 сообщениях
Открыли хайд :
0 в этом сообщении
2 Всего


По умолчанию [Atmospheric Black Metal / Dark Ambient] Sieghetnar

Sieghetnar - Bewußtseinserweiterung

[Для просмотра данной ссылки нужно зарегистрироваться]

2008

01. I [2:02]
02. II [12:29]
03. III [11:09]
04. IV [30:04]

image+.cue

EAC extraction logfile:
Exact Audio Copy V0.99 prebeta 4 from 23. January 2008

EAC extraction logfile from 21. February 2009, 23:19

Sieghetnar / Bewubtseinserweiterung

Used drive : _NEC DVD_RW ND-3540A Adapter: 0 ID: 0

Read mode : Secure
Utilize accurate stream : Yes
Defeat audio cache : Yes
Make use of C2 pointers : No

Read offset correction : 48
Overread into Lead-In and Lead-Out : No
Fill up missing offset samples with silence : Yes
Delete leading and trailing silent blocks : No
Null samples used in CRC calculations : Yes
Used interface : Installed external ASPI interface

Used output format : User Defined Encoder
Selected bitrate : 32 kBit/s
Quality : High
Add ID3 tag : No
Command line compressor : C:\Program Files\Exact Audio Copy\FLAC.EXE
Additional command line options : -6 -V %s


TOC of the extracted CD

Track | Start | Length | Start sector | End sector
---------------------------------------------------------
1 | 0:00.00 | 2:02.30 | 0 | 9179
2 | 2:02.30 | 12:28.73 | 9180 | 65352
3 | 14:31.28 | 11:08.47 | 65353 | 115499
4 | 25:40.00 | 30:04.31 | 115500 | 250830


Range status and errors

Selected range

Filename E:\Lossless\Sieghetnar - Bewubtseinserweiterung (2008) [FLAC]\Sieghetnar - Bewubtseinserweiterung (2008).wav

Peak level 99.9 %
Range quality 99.9 %
Copy CRC 927F04A1
Copy OK

No errors occurred


AccurateRip summary

Track 1 not present in database
Track 2 not present in database
Track 3 not present in database
Track 4 not present in database

None of the tracks are present in the AccurateRip database

End of status report




Ссылка для скачивания файла:
[Для просмотра данной ссылки нужно зарегистрироваться]
qwesderops вне форума  
Ответить с цитированием
Эти 5 пользователя(ей) сказали Спасибо qwesderops за это полезное сообщение:
barbariangoth (04.03.2009), DreadMashine (05.03.2009), dying_inside (03.03.2009), mezzo (06.03.2009), Qwenn (03.03.2009)
Старый 09.07.2009, 00:55   #2
Дружище
 
Аватар для dying_inside
 
Регистрация: 21.12.2006
Пол: M
Провайдер: Стрим
Сообщений: 960
Поблагодарил: 4,777
Поблагодарили 1,524 раз в 555 сообщениях
Открыли хайд :
4 в этом сообщении
537 Всего


По умолчанию

2006 - Verfallen & Verendet
2007 - Todessehnsucht
2008 - Kaltetod
Чтобы увидеть скрытый текст Вам нужно нажать кнопочку "Открыть Hide"
У вас нет прав чтобы видеть скрытый текст, содержащийся здесь.
dying_inside вне форума  
Ответить с цитированием
Эти 3 пользователя(ей) сказали Спасибо dying_inside за это полезное сообщение:
barbariangoth (12.07.2009), mezzo (09.07.2009), Nephilim (09.07.2009)
Хайд открыли:
death.chem (01.09.2009), barbariangoth (12.07.2009), Nephilim (09.07.2009), mezzo (09.07.2009)
Ответ


Здесь присутствуют: 1 (пользователей: 0 , гостей: 1)
 
Опции темы
Опции просмотра

Ваши права в разделе
Вы не можете создавать новые темы
Вы не можете отвечать в темах
Вы не можете прикреплять вложения
Вы не можете редактировать свои сообщения

BB коды Вкл.
Смайлы Вкл.
[IMG] код Вкл.
HTML код Выкл.
Trackbacks are Выкл.
Pingbacks are Выкл.
Refbacks are Выкл.


Часовой пояс GMT +3, время: 17:55.