Вернуться   Нижегородский Форум Друзей > Обсуждаем и качаем > Музыка > Lossless > Hard Клуб > Black Metal Lossless
Забыли пароль? Регистрация



Black Metal Lossless Black Metal / Blackened Death / Raw / Depressive / Suicidal / Atmospheric / Melodic / Sympho / Industrial Black


Ответ
 
Опции темы Опции просмотра
Старый 04.03.2009, 16:04   #1
Приятель
 
Аватар для qwesderops
 
Регистрация: 02.10.2008
Адрес: dzr
Пол: М
Провайдер: ВТ
Сообщений: 115
Поблагодарил: 121
Поблагодарили 212 раз в 58 сообщениях
Открыли хайд :
0 в этом сообщении
2 Всего


По умолчанию [Chao-Gnostic Black Metal] Arckanum

[Для просмотра данной ссылки нужно зарегистрироваться]
*Артист: Arckanum
*Альбом: Kampen

*Год: 1998
*Стиль: Chao-Gnostic Black Metal
*Страна: Sweden (Mora)
Flac + Cue

Треклист:
1. Kamps Tekn / Frana / Tronan Yvir юusand Landskaps Mark / Pa Gruvstiigher Vandrum 28:27
2. Minir Natz Fughlir / Trulfylket, Raюz Ok Os / юe Hжmpndlystnir Fran Dimban 20:04
Disc 2
1. Nжr Ok Fiжr / Skipu Vidit Dunkel 20:04
2. Uжr Vindanir Dvжlies / Sangin Kaos 04:41
*************************
Полное время альбома: 01:13:16

EAC extraction logfile CD 1:
Exact Audio Copy V0.99 prebeta 4 from 23. January 2008

from 27. DecembEAC extraction logfileer 2008, 20:37

Arckanum / Kampen (Disc 1)

Used drive : MATSHITADVD-R UJ-857E Adapter: 0 ID: 0

Read mode : Secure
Utilize accurate stream : Yes
Defeat audio cache : Yes
Make use of C2 pointers : No

Read offset correction : 102
Overread into Lead-In and Lead-Out : No
Fill up missing offset samples with silence : Yes
Delete leading and trailing silent blocks : No
Null samples used in CRC calculations : Yes
Used interface : Native Win32 interface for Win NT & 2000
Gap handling : Appended to previous track

Used output format : User Defined Encoder
Selected bitrate : 1024 kBit/s
Quality : High
Add ID3 tag : No
Command line compressor : C:\Program Files\Exact Audio Copy\FLAC\FLAC.EXE
Additional command line options : -V -8 -T "artist=%a" -T "title=%t" -T "album=%g" -T "date=%y" -T "tracknumber=%n" -T "genre=%m" %s


TOC of the extracted CD

Track | Start | Length | Start sector | End sector
---------------------------------------------------------
1 | 0:00.00 | 4:41.48 | 0 | 21122
2 | 4:41.48 | 5:59.48 | 21123 | 48095
3 | 10:41.21 | 6:50.48 | 48096 | 78893
4 | 17:31.69 | 4:17.48 | 78894 | 98216
5 | 21:49.42 | 6:50.48 | 98217 | 129014
6 | 28:40.15 | 6:38.48 | 129015 | 158912
7 | 35:18.63 | 8:42.48 | 158913 | 198110
8 | 44:01.36 | 4:15.48 | 198111 | 217283
9 | 48:17.09 | 3:59.48 | 217284 | 235256


Track 1

Filename C:\EAC\01 - Intro.wav

Pre-gap length 0:00:02.00

Peak level 96.6 %
Track quality 100.0 %
Test CRC CD41ED05
Copy CRC CD41ED05
Track not present in AccurateRip database
Copy OK

Track 2

Filename C:\EAC\02 - Kamps tekn.wav

Peak level 96.6 %
Track quality 99.9 %
Test CRC 681838D8
Copy CRC 681838D8
Track not present in AccurateRip database
Copy OK

Track 3

Filename C:\EAC\03 - Frana.wav

Peak level 96.6 %
Track quality 100.0 %
Test CRC 829B52AC
Copy CRC 829B52AC
Track not present in AccurateRip database
Copy OK

Track 4

Filename C:\EAC\04 - Tronan yvir юusand landskaps mark.wav

Peak level 96.6 %
Track quality 100.0 %
Test CRC AF492A1F
Copy CRC AF492A1F
Track not present in AccurateRip database
Copy OK

Track 5

Filename C:\EAC\05 - Pa gruvstiigher vandrum.wav

Peak level 96.6 %
Track quality 100.0 %
Test CRC B85DC091
Copy CRC B85DC091
Track not present in AccurateRip database
Copy OK

Track 6

Filename C:\EAC\06 - Minir natz fughlir.wav

Peak level 96.6 %
Track quality 100.0 %
Test CRC E7F57702
Copy CRC E7F57702
Track not present in AccurateRip database
Copy OK

Track 7

Filename C:\EAC\07 - Trulfylket, raюz ok os.wav

Peak level 96.6 %
Track quality 100.0 %
Test CRC 3BB95F82
Copy CRC 3BB95F82
Track not present in AccurateRip database
Copy OK

Track 8

Filename C:\EAC\08 - юe hжmpndlystnir fran dimban.wav

Peak level 96.6 %
Track quality 100.0 %
Test CRC 5F926CB3
Copy CRC 5F926CB3
Track not present in AccurateRip database
Copy OK

Track 9

Filename C:\EAC\09 - Nжr ok fiжr.wav

Peak level 95.4 %
Track quality 100.0 %
Test CRC CC53F356
Copy CRC CC53F356
Track not present in AccurateRip database
Copy OK


None of the tracks are present in the AccurateRip database

No errors occurred

End of status report

EAC extraction logfile CD 2:
Exact Audio Copy V0.99 prebeta 4 from 23. January 2008

EAC extraction logfile from 27. December 2008, 21:09

Arckanum / Kampen (Disc 2)

Used drive : MATSHITADVD-R UJ-857E Adapter: 0 ID: 0

Read mode : Secure
Utilize accurate stream : Yes
Defeat audio cache : Yes
Make use of C2 pointers : No

Read offset correction : 102
Overread into Lead-In and Lead-Out : No
Fill up missing offset samples with silence : Yes
Delete leading and trailing silent blocks : No
Null samples used in CRC calculations : Yes
Used interface : Native Win32 interface for Win NT & 2000
Gap handling : Appended to previous track

Used output format : User Defined Encoder
Selected bitrate : 1024 kBit/s
Quality : High
Add ID3 tag : No
Command line compressor : C:\Program Files\Exact Audio Copy\FLAC\FLAC.EXE
Additional command line options : -V -8 -T "artist=%a" -T "title=%t" -T "album=%g" -T "date=%y" -T "tracknumber=%n" -T "genre=%m" %s


TOC of the extracted CD

Track | Start | Length | Start sector | End sector
---------------------------------------------------------
1 | 0:00.00 | 5:37.48 | 0 | 25322
2 | 5:37.48 | 5:50.48 | 25323 | 51620
3 | 11:28.21 | 8:59.48 | 51621 | 92093


Track 1

Filename C:\EAC\01 - Skipu vidit dunkel.wav

Pre-gap length 0:00:02.00

Peak level 96.6 %
Track quality 100.0 %
Test CRC 529646AD
Copy CRC 529646AD
Track not present in AccurateRip database
Copy OK

Track 2

Filename C:\EAC\02 - южr vindanir dvжlies.wav

Peak level 96.6 %
Track quality 99.9 %
Test CRC 2B9302E9
Copy CRC 2B9302E9
Track not present in AccurateRip database
Copy OK

Track 3

Filename C:\EAC\03 - Sangin kaos.wav

Peak level 96.6 %
Track quality 100.0 %
Test CRC 2A93B510
Copy CRC 2A93B510
Track not present in AccurateRip database
Copy OK


None of the tracks are present in the AccurateRip database

No errors occurred

End of status report


Ссылка для скачивания файла:
[Для просмотра данной ссылки нужно зарегистрироваться]
qwesderops вне форума  
Ответить с цитированием
Эти 2 пользователя(ей) сказали Спасибо qwesderops за это полезное сообщение:
dying_inside (04.03.2009), Tjodmar (04.03.2009)
Ответ


Здесь присутствуют: 1 (пользователей: 0 , гостей: 1)
 
Опции темы
Опции просмотра

Ваши права в разделе
Вы не можете создавать новые темы
Вы не можете отвечать в темах
Вы не можете прикреплять вложения
Вы не можете редактировать свои сообщения

BB коды Вкл.
Смайлы Вкл.
[IMG] код Вкл.
HTML код Выкл.
Trackbacks are Выкл.
Pingbacks are Выкл.
Refbacks are Выкл.


Часовой пояс GMT +3, время: 06:07.