Вернуться   Нижегородский Форум Друзей > Обсуждаем и качаем > Музыка > Lossless > Hard Клуб > Black Metal Lossless
Забыли пароль? Регистрация



Black Metal Lossless Black Metal / Blackened Death / Raw / Depressive / Suicidal / Atmospheric / Melodic / Sympho / Industrial Black


Ответ
 
Опции темы Опции просмотра
Старый 03.05.2009, 16:51   #1
Power User
 
Аватар для toshi
 
Регистрация: 23.09.2008
Адрес: Сормово
Пол: M
Провайдер: Эр-Телеком
Сообщений: 1,304
Поблагодарил: 661
Поблагодарили 2,880 раз в 1,044 сообщениях
Открыли хайд :
5 в этом сообщении
3,238 Всего


По умолчанию [Blackened Death Metal] Immemorial

[Для просмотра данной ссылки нужно зарегистрироваться]

Исполнитель: Immemorial
Альбом: Temple Of Retribution
Дата выпуска: 2001
Жанр: Metal
Формат: FLAC (image+cue)
Битрейт: 1048 kbps
Продолжительность: 00:39:08

Треклист:
01. Introduce The Chaos [00:01:03]
02. Curse Of Chaos [00:03:26]
03. A Nightmare Scenario [00:02:09]
04. Trumphant Grasp [00:03:18]
05. Introduce The Power [00:00:54]
06. My Will To Power [00:02:12]
07. By The Sunset [00:02:22]
08. Temple Of Retribution [00:02:57]
09. 19.1.20.1.14 [00:03:32]
10. The Unholy [00:01:54]
11. Blazing Glory (Instrumental) [00:03:50]
12. In Dark [00:02:52]
13. Armageddons Blade [00:03:56]
14. Immemorial Ages [00:03:31]
15. Outro [00:01:04]


Отчёт EAC:

Exact Audio Copy V0.99 prebeta 4 from 23. January 2008

EAC extraction logfile from 24. January 2009, 7:34

Immemorial / Temple Of Retribution

Used drive : TSSTcorpCDDVDW SH-S223F Adapter: 0 ID: 0

Read mode : Secure
Utilize accurate stream : Yes
Defeat audio cache : Yes
Make use of C2 pointers : No

Read offset correction : 6
Overread into Lead-In and Lead-Out : No
Fill up missing offset samples with silence : Yes
Delete leading and trailing silent blocks : No
Null samples used in CRC calculations : Yes
Used interface : Installed external ASPI interface

Used output format : User Defined Encoder
Selected bitrate : 128 kBit/s
Quality : High
Add ID3 tag : No
Command line compressor : C:\Program\Exact Audio Copy\flac-1.2.1-win\bin\flac.exe
Additional command line options : -V -6 -T "artist=%a" -T "title=%t" -T "album=%g" -T "date=%y" -T "tracknumber=%n" -T "genre=%m" %s


TOC of the extracted CD

Track | Start | Length | Start sector | End sector
---------------------------------------------------------
1 | 0:00.00 | 1:03.67 | 0 | 4791
2 | 1:03.67 | 3:26.58 | 4792 | 20299
3 | 4:30.50 | 2:09.57 | 20300 | 30031
4 | 6:40.32 | 3:18.13 | 30032 | 44894
5 | 9:58.45 | 0:54.70 | 44895 | 49014
6 | 10:53.40 | 2:12.20 | 49015 | 58934
7 | 13:05.60 | 2:22.45 | 58935 | 69629
8 | 15:28.30 | 2:57.42 | 69630 | 82946
9 | 18:25.72 | 3:32.18 | 82947 | 98864
10 | 21:58.15 | 1:54.65 | 98865 | 107479
11 | 23:53.05 | 3:50.07 | 107480 | 124736
12 | 27:43.12 | 2:52.38 | 124737 | 137674
13 | 30:35.50 | 3:56.15 | 137675 | 155389
14 | 34:31.65 | 3:31.65 | 155390 | 171279
15 | 38:03.55 | 1:04.27 | 171280 | 176106


Range status and errors

Selected range

Filename E:\Immemorial - Temple Of Retribution.wav

Peak level 100.0 %
Range quality 100.0 %
Copy CRC 2EC1047B
Copy OK

No errors occurred


AccurateRip summary

Track 1 not present in database
Track 2 not present in database
Track 3 not present in database
Track 4 not present in database
Track 5 not present in database
Track 6 not present in database
Track 7 not present in database
Track 8 not present in database
Track 9 not present in database
Track 10 not present in database
Track 11 not present in database
Track 12 not present in database
Track 13 not present in database
Track 14 not present in database
Track 15 not present in database

None of the tracks are present in the AccurateRip database

End of status report

[Для просмотра данной ссылки нужно зарегистрироваться]

share.nnov

Чтобы увидеть скрытый текст Вам нужно нажать кнопочку "Открыть Hide"
У вас нет прав чтобы видеть скрытый текст, содержащийся здесь.
__________________
Подключайтесь к ДОМ.РУ!!!:
[Для просмотра данной ссылки нужно зарегистрироваться]
т.п. "Токио"
toshi вне форума  
Ответить с цитированием
Эти 3 пользователя(ей) сказали Спасибо toshi за это полезное сообщение:
ACHERON (04.05.2009), barbariangoth (14.05.2009), dying_inside (03.05.2009)
Хайд открыли:
Sanych-Satanych (06.06.2009), barbariangoth (14.05.2009), ACHERON (04.05.2009), DreadMashine (04.05.2009), dying_inside (03.05.2009)
Старый 03.05.2009, 17:45   #2
Дружище
 
Аватар для dying_inside
 
Регистрация: 21.12.2006
Пол: M
Провайдер: Стрим
Сообщений: 960
Поблагодарил: 4,777
Поблагодарили 1,524 раз в 555 сообщениях
Открыли хайд :
0 в этом сообщении
537 Всего


По умолчанию

[Для просмотра данной ссылки нужно зарегистрироваться]
dying_inside вне форума  
Ответить с цитированием
Старый 03.05.2009, 19:18   #3
Power User
 
Аватар для toshi
 
Регистрация: 23.09.2008
Адрес: Сормово
Пол: M
Провайдер: Эр-Телеком
Сообщений: 1,304
Поблагодарил: 661
Поблагодарили 2,880 раз в 1,044 сообщениях
Открыли хайд :
0 в этом сообщении
3,238 Всего


По умолчанию

Цитата:
Сообщение от dying_inside Посмотреть сообщение
http://forum.friends.nnov.ru/showthread.php?t=40780
поиск промолчал.
__________________
Подключайтесь к ДОМ.РУ!!!:
[Для просмотра данной ссылки нужно зарегистрироваться]
т.п. "Токио"
toshi вне форума  
Ответить с цитированием
Старый 03.05.2009, 19:34   #4
Дружище
 
Аватар для dying_inside
 
Регистрация: 21.12.2006
Пол: M
Провайдер: Стрим
Сообщений: 960
Поблагодарил: 4,777
Поблагодарили 1,524 раз в 555 сообщениях
Открыли хайд :
0 в этом сообщении
537 Всего


По умолчанию

toshi, а это потому что ты название группы неправильно написал
dying_inside вне форума  
Ответить с цитированием
Ответ


Здесь присутствуют: 1 (пользователей: 0 , гостей: 1)
 
Опции темы
Опции просмотра

Ваши права в разделе
Вы не можете создавать новые темы
Вы не можете отвечать в темах
Вы не можете прикреплять вложения
Вы не можете редактировать свои сообщения

BB коды Вкл.
Смайлы Вкл.
[IMG] код Вкл.
HTML код Выкл.
Trackbacks are Выкл.
Pingbacks are Выкл.
Refbacks are Выкл.


Часовой пояс GMT +3, время: 06:55.