Вернуться   Нижегородский Форум Друзей > Обсуждаем и качаем > Музыка > Lossless > Hard Клуб > Black Metal Lossless
Забыли пароль? Регистрация



Black Metal Lossless Black Metal / Blackened Death / Raw / Depressive / Suicidal / Atmospheric / Melodic / Sympho / Industrial Black
Описание темы:with deathcore influence


Ответ
 
Опции темы Опции просмотра
Старый 16.05.2009, 21:43   #1
Дружище
 
Аватар для xRaiderx
 
Регистрация: 03.10.2007
Адрес: Дзержинск
Пол: M
Сообщений: 719
Поблагодарил: 528
Поблагодарили 1,766 раз в 549 сообщениях
Открыли хайд :
0 в этом сообщении
373 Всего


По умолчанию [Sympho Black / Melodic Death Metal] Abigail Williams




[Для просмотра данной ссылки нужно зарегистрироваться]
500*500

Альбом: Legend (EP)
Дата выпуска: 2006
Формат: FLAC (tracks)
Битрейт: 963-1106 kbps
Продолжительность: 00:21:44

Треклист:
01. From A Buried Heart [00:04:10]
02. Like Carrion Birds [00:03:43]
03. The Conqueror Wyrm [00:04:22]
04. Watchtower [00:05:39]
05. Procession Of The Aeons [00:03:47]

Отчёт EAC:

Exact Audio Copy V0.99 prebeta 4 from 23. January 2008

EAC extraction logfile from 10. September 2008, 0:36

Abigail Williams / Legend

Used drive : PIONEER DVD-RW DVR-109 Adapter: 1 ID: 0

Read mode : Secure
Utilize accurate stream : Yes
Defeat audio cache : Yes
Make use of C2 pointers : No

Read offset correction : 48
Overread into Lead-In and Lead-Out : No
Fill up missing offset samples with silence : Yes
Delete leading and trailing silent blocks : No
Null samples used in CRC calculations : No
Used interface : Native Win32 interface for Win NT & 2000
Gap handling : Appended to previous track

Used output format : Internal WAV Routines
Sample format : 44.100 Hz; 16 Bit; Stereo


TOC of the extracted CD

Track | Start | Length | Start sector | End sector
---------------------------------------------------------
1 | 0:00.00 | 4:10.20 | 0 | 18769
2 | 4:10.20 | 3:43.50 | 18770 | 35544
3 | 7:53.70 | 4:22.53 | 35545 | 55247
4 | 12:16.48 | 5:39.58 | 55248 | 80730
5 | 17:56.31 | 3:47.51 | 80731 | 97806


Track 1

Filename F:\[-Ripped CDs-]\Abigail Williams - Legend - 01 - From A Buried Heart.wav

Pre-gap length 0:00:02.00

Peak level 97.7 %
Track quality 100.0 %
Test CRC D6826A8A
Copy CRC D6826A8A
Track not present in AccurateRip database
Copy OK

Track 2

Filename F:\[-Ripped CDs-]\Abigail Williams - Legend - 02 - Like Carrion Birds.wav

Peak level 97.7 %
Track quality 100.0 %
Test CRC 1090DA25
Copy CRC 1090DA25
Track not present in AccurateRip database
Copy OK

Track 3

Filename F:\[-Ripped CDs-]\Abigail Williams - Legend - 03 - The Conqueror Wyrm.wav

Peak level 97.7 %
Track quality 100.0 %
Test CRC 546805A6
Copy CRC 546805A6
Track not present in AccurateRip database
Copy OK

Track 4

Filename F:\[-Ripped CDs-]\Abigail Williams - Legend - 04 - Watchtower.wav

Peak level 97.7 %
Track quality 100.0 %
Test CRC 6D79E575
Copy CRC 6D79E575
Track not present in AccurateRip database
Copy OK

Track 5

Filename F:\[-Ripped CDs-]\Abigail Williams - Legend - 05 - Procession Of The Aeons.wav

Peak level 97.7 %
Track quality 100.0 %
Test CRC E7472506
Copy CRC E7472506
Track not present in AccurateRip database
Copy OK


None of the tracks are present in the AccurateRip database

No errors occurred

End of status report

Password: sharedmusic.net
[Для просмотра данной ссылки нужно зарегистрироваться] | [Для просмотра данной ссылки нужно зарегистрироваться]

|------------------------------------------------------------------------------|

[Для просмотра данной ссылки нужно зарегистрироваться]
600*595

Альбом: In the Shadow of a Thousand Suns
Дата выпуска: 2008
Формат: FLAC (tracks)
Битрейт: 721-1151 kbps
Продолжительность: 00:46:39

Треклист:
01. I [00:00:38]
02. The World Beyond [00:06:16]
03. Acolytes [00:04:59]
04. A Thousand Suns [00:05:08]
05. Into the Ashes [00:04:38]
06. Smoke and Mirrors [00:04:52]
07. A Semblance of Life [00:02:06]
08. Empyrean_Into the Cold Wastes [00:06:15]
09. Floods [00:05:47]
10. The Departure [00:05:55]

Отчёт EAC:

Exact Audio Copy V0.99 prebeta 4 from 23. January 2008

EAC extraction logfile from 1. November 2008, 22:19

Abigail Williams / In the Shadow of a Thousand Suns

Used drive : SONY DVD RW DRU-830A Adapter: 1 ID: 1

Read mode : Secure
Utilize accurate stream : Yes
Defeat audio cache : No
Make use of C2 pointers : No

Read offset correction : 6
Overread into Lead-In and Lead-Out : No
Fill up missing offset samples with silence : Yes
Delete leading and trailing silent blocks : No
Null samples used in CRC calculations : Yes
Used interface : Native Win32 interface for Win NT & 2000
Gap handling : Appended to previous track

Used output format : User Defined Encoder
Selected bitrate : 192 kBit/s
Quality : High
Add ID3 tag : No
Command line compressor : C:\Program Files\FLAC\flac.exe
Additional command line options : -8 -V -T "artist=%a" -T "title=%t" -T "album=%g" -T "date=%y" -T "tracknumber=%n" -T "genre=%m" %s


TOC of the extracted CD

Track | Start | Length | Start sector | End sector
---------------------------------------------------------
1 | 0:00.00 | 0:38.72 | 0 | 2921
2 | 0:38.72 | 6:16.04 | 2922 | 31125
3 | 6:55.01 | 4:59.43 | 31126 | 53593
4 | 11:54.44 | 5:08.46 | 53594 | 76739
5 | 17:03.15 | 4:38.34 | 76740 | 97623
6 | 21:41.49 | 4:52.32 | 97624 | 119555
7 | 26:34.06 | 2:06.06 | 119556 | 129011
8 | 28:40.12 | 6:15.21 | 129012 | 157157
9 | 34:55.33 | 5:47.67 | 157158 | 183249
10 | 40:43.25 | 5:55.54 | 183250 | 209928


Track 1

Filename C:\Users\bby347\Desktop\Brooks\Abigail Williams\In the Shadow of a Thousand Suns\01 - I.wav

Pre-gap length 0:00:02.00

Peak level 96.6 %
Track quality 100.0 %
Test CRC 3D4F4785
Copy CRC 3D4F4785
Track not present in AccurateRip database
Copy OK

Track 2

Filename C:\Users\bby347\Desktop\Brooks\Abigail Williams\In the Shadow of a Thousand Suns\02 - The World Beyond.wav

Peak level 100.0 %
Track quality 100.0 %
Test CRC 78117E2C
Copy CRC 78117E2C
Track not present in AccurateRip database
Copy OK

Track 3

Filename C:\Users\bby347\Desktop\Brooks\Abigail Williams\In the Shadow of a Thousand Suns\03 - Acolytes.wav

Peak level 100.0 %
Track quality 100.0 %
Test CRC B65FB4F7
Copy CRC B65FB4F7
Track not present in AccurateRip database
Copy OK

Track 4

Filename C:\Users\bby347\Desktop\Brooks\Abigail Williams\In the Shadow of a Thousand Suns\04 - A Thousand Suns.wav

Peak level 96.6 %
Track quality 100.0 %
Test CRC 6C6E7B73
Copy CRC 6C6E7B73
Track not present in AccurateRip database
Copy OK

Track 5

Filename C:\Users\bby347\Desktop\Brooks\Abigail Williams\In the Shadow of a Thousand Suns\05 - Into the Ashes.wav

Peak level 100.0 %
Track quality 100.0 %
Test CRC 743D9FEE
Copy CRC 743D9FEE
Track not present in AccurateRip database
Copy OK

Track 6

Filename C:\Users\bby347\Desktop\Brooks\Abigail Williams\In the Shadow of a Thousand Suns\06 - Smoke and Mirrors.wav

Peak level 100.0 %
Track quality 100.0 %
Test CRC 88272DCC
Copy CRC 88272DCC
Track not present in AccurateRip database
Copy OK

Track 7

Filename C:\Users\bby347\Desktop\Brooks\Abigail Williams\In the Shadow of a Thousand Suns\07 - A Semblance of Life.wav

Peak level 96.6 %
Track quality 100.0 %
Test CRC F697180A
Copy CRC F697180A
Track not present in AccurateRip database
Copy OK

Track 8

Filename C:\Users\bby347\Desktop\Brooks\Abigail Williams\In the Shadow of a Thousand Suns\08 - Empyrean_Into the Cold Wastes.wav

Peak level 100.0 %
Track quality 100.0 %
Test CRC 871BE618
Copy CRC 871BE618
Track not present in AccurateRip database
Copy OK

Track 9

Filename C:\Users\bby347\Desktop\Brooks\Abigail Williams\In the Shadow of a Thousand Suns\09 - Floods.wav

Peak level 100.0 %
Track quality 100.0 %
Test CRC 4ACC02FD
Copy CRC 4ACC02FD
Track not present in AccurateRip database
Copy OK

Track 10

Filename C:\Users\bby347\Desktop\Brooks\Abigail Williams\In the Shadow of a Thousand Suns\10 - The Departure.wav

Peak level 100.0 %
Track quality 100.0 %
Test CRC 70C3B592
Copy CRC 70C3B592
Track not present in AccurateRip database
Copy OK


None of the tracks are present in the AccurateRip database

No errors occurred

End of status report

[Для просмотра данной ссылки нужно зарегистрироваться] | [Для просмотра данной ссылки нужно зарегистрироваться] | [Для просмотра данной ссылки нужно зарегистрироваться] | [Для просмотра данной ссылки нужно зарегистрироваться]

[Для просмотра данной ссылки нужно зарегистрироваться]

Оба релиза круты. Альбом более эпичный, насыщенный классными аранжировками.
xRaiderx вне форума  
Ответить с цитированием
Эти 6 пользователя(ей) сказали Спасибо xRaiderx за это полезное сообщение:
Alex_Corvis (16.05.2009), barbariangoth (17.05.2009), CruelDog (17.05.2009), Ozols (17.05.2009), Qwenn (16.05.2009), Sanych-Satanych (06.06.2009)
Старый 16.05.2009, 21:48   #2
Хороший Друг
 
Аватар для Alex_Corvis
 
Регистрация: 18.06.2008
Адрес: Рядом с Вами...
Пол: М
Провайдер: Эр-Телеком
Сообщений: 480
Поблагодарил: 845
Поблагодарили 238 раз в 106 сообщениях
Открыли хайд :
0 в этом сообщении
325 Всего


По умолчанию

xRaiderx
А ееееее) Вот это я понимаю! Спасибо, друг! Давно их во флаке хотел)
Alex_Corvis вне форума  
Ответить с цитированием
Старый 16.05.2009, 21:54   #3
Дружище
 
Аватар для xRaiderx
 
Регистрация: 03.10.2007
Адрес: Дзержинск
Пол: M
Сообщений: 719
Поблагодарил: 528
Поблагодарили 1,766 раз в 549 сообщениях
Открыли хайд :
0 в этом сообщении
373 Всего


По умолчанию

Alex_Corvis, на здоровье! Крутой бенд.
xRaiderx вне форума  
Ответить с цитированием
Ответ


Здесь присутствуют: 1 (пользователей: 0 , гостей: 1)
 
Опции темы
Опции просмотра

Ваши права в разделе
Вы не можете создавать новые темы
Вы не можете отвечать в темах
Вы не можете прикреплять вложения
Вы не можете редактировать свои сообщения

BB коды Вкл.
Смайлы Вкл.
[IMG] код Вкл.
HTML код Выкл.
Trackbacks are Выкл.
Pingbacks are Выкл.
Refbacks are Выкл.


Часовой пояс GMT +3, время: 05:59.