Вернуться   Нижегородский Форум Друзей > Обсуждаем и качаем > Музыка > Lossless > Hard Клуб > Black Metal Lossless
Забыли пароль? Регистрация



Black Metal Lossless Black Metal / Blackened Death / Raw / Depressive / Suicidal / Atmospheric / Melodic / Sympho / Industrial Black


Ответ
 
Опции темы Опции просмотра
Старый 25.05.2009, 20:44   #1
Дружище
 
Аватар для dying_inside
 
Регистрация: 21.12.2006
Пол: M
Провайдер: Стрим
Сообщений: 960
Поблагодарил: 4,777
Поблагодарили 1,524 раз в 555 сообщениях
Открыли хайд :
11 в этом сообщении
537 Всего


По умолчанию [Black Metal / Ambient] Forest Silence

2006 - Philosophy Of Winter



Tracklist:

1. Bringer of Storm
2. Spirits of the Winds
3. At the Dawning of Chaos
4. Path of Destruction
5. Philosophy of Winter

Лог EAC:
Exact Audio Copy V0.99 prebeta 4 from 23. January 2008

EAC extraction logfile from 24. February 2009, 13:58

Forest Silence / Philosophy Of Winter

Used drive : Optiarc DVD RW AD-7200S Adapter: 2 ID: 1

Read mode : Secure
Utilize accurate stream : Yes
Defeat audio cache : Yes
Make use of C2 pointers : No

Read offset correction : 48
Overread into Lead-In and Lead-Out : No
Fill up missing offset samples with silence : Yes
Delete leading and trailing silent blocks : No
Null samples used in CRC calculations : Yes
Used interface : Native Win32 interface for Win NT & 2000
Gap handling : Appended to previous track

Used output format : Internal WAV Routines
Sample format : 44.100 Hz; 16 Bit; Stereo


TOC of the extracted CD

Track | Start | Length | Start sector | End sector
---------------------------------------------------------
1 | 0:00.00 | 7:17.73 | 0 | 32847
2 | 7:17.73 | 6:28.58 | 32848 | 62005
3 | 13:46.56 | 6:57.26 | 62006 | 93306
4 | 20:44.07 | 7:21.15 | 93307 | 126396
5 | 28:05.22 | 7:48.59 | 126397 | 161555


Track 1

Filename E:\Documents and Settings\jalla\Desktop\Forest Silence\Philosophy Of Winter\Forest Silence - 01 - Bringer Of Storm.wav

Pre-gap length 0:00:02.00

Peak level 98.8 %
Track quality 99.9 %
Test CRC 8FEC30C5
Copy CRC 8FEC30C5
Track not present in AccurateRip database
Copy OK

Track 2

Filename E:\Documents and Settings\jalla\Desktop\Forest Silence\Philosophy Of Winter\Forest Silence - 02 - Spirits Of The Wind.wav

Peak level 98.8 %
Track quality 100.0 %
Test CRC A0340A74
Copy CRC A0340A74
Track not present in AccurateRip database
Copy OK

Track 3

Filename E:\Documents and Settings\jalla\Desktop\Forest Silence\Philosophy Of Winter\Forest Silence - 03 - At The Dawn Of Chaos.wav

Peak level 98.8 %
Track quality 100.0 %
Test CRC E9253852
Copy CRC E9253852
Track not present in AccurateRip database
Copy OK

Track 4

Filename E:\Documents and Settings\jalla\Desktop\Forest Silence\Philosophy Of Winter\Forest Silence - 04 - Path Of Destruction.wav

Peak level 98.8 %
Track quality 100.0 %
Test CRC E39F0E74
Copy CRC E39F0E74
Track not present in AccurateRip database
Copy OK

Track 5

Filename E:\Documents and Settings\jalla\Desktop\Forest Silence\Philosophy Of Winter\Forest Silence - 05 - Philosophy Of Winter.wav

Peak level 98.8 %
Track quality 100.0 %
Test CRC 0DD10CE6
Copy CRC 0DD10CE6
Track not present in AccurateRip database
Copy OK


None of the tracks are present in the AccurateRip database

No errors occurred

End of status report

files.unn
Чтобы увидеть скрытый текст Вам нужно нажать кнопочку "Открыть Hide"
У вас нет прав чтобы видеть скрытый текст, содержащийся здесь.
dying_inside вне форума  
Ответить с цитированием
Эти 7 пользователя(ей) сказали Спасибо dying_inside за это полезное сообщение:
ACHERON (26.05.2009), barbariangoth (26.05.2009), CruelDog (26.05.2009), lady_in_black (25.05.2009), mezzo (25.05.2009), Qwenn (31.05.2009), toshi (31.05.2009)
Хайд открыли:
toshi (31.05.2009), Qwenn (31.05.2009), Polyot (30.05.2009), DreadMashine (27.05.2009), barbariangoth (26.05.2009), Neath (26.05.2009), ACHERON (26.05.2009), CruelDog (26.05.2009), lady_in_black (25.05.2009), barsik33 (25.05.2009), mezzo (25.05.2009)
Ответ


Здесь присутствуют: 1 (пользователей: 0 , гостей: 1)
 
Опции темы
Опции просмотра

Ваши права в разделе
Вы не можете создавать новые темы
Вы не можете отвечать в темах
Вы не можете прикреплять вложения
Вы не можете редактировать свои сообщения

BB коды Вкл.
Смайлы Вкл.
[IMG] код Вкл.
HTML код Выкл.
Trackbacks are Выкл.
Pingbacks are Выкл.
Refbacks are Выкл.


Часовой пояс GMT +3, время: 17:52.