Вернуться   Нижегородский Форум Друзей > Обсуждаем и качаем > Музыка > Lossless > Hard Клуб > Death Metal Lossless
Забыли пароль? Регистрация



Death Metal Lossless Death Metal / Brutal Death / Technical Death / Melodic Death


Ответ
 
Опции темы Опции просмотра
Старый 16.04.2009, 20:27   #1
Дружище
 
Аватар для xRaiderx
 
Регистрация: 03.10.2007
Адрес: Дзержинск
Пол: M
Сообщений: 719
Поблагодарил: 528
Поблагодарили 1,766 раз в 549 сообщениях
Открыли хайд :
0 в этом сообщении
373 Всего


По умолчанию [Death Metal / Grindcore] The Red Chord

Альбом: Fused Together In Revolving Doors
Дата выпуска: 2004
Жанр: Hardcore/Death Metal/Grindcore
Формат: FLAC (tracks)
Битрейт: 699-1054 kbps
Продолжительность: 00:36:41

Треклист:
01. Nihilist [00:03:34]
02. That Certain Special Ugly [00:03:06]
03. Catalepsy [00:03:19]
04. Like A Train Through A Pigeon [00:03:19]
05. He Was Stretching, And Then He Climbed Up There [00:01:54]
06. Breed The Cancer [00:02:33]
07. L Formation [00:01:52]
08. Dreaming In Dog Years [00:03:03]
09. Sixteen Bit Fingerprint [00:07:02]
10. Jar Full Of Bunny Parts (demo) [00:01:45]
11. Better Judgement (demo) [00:05:09]

Отчёт EAC:

EAC extraction logfile from 4. April 2008, 17:03 for CD
The Red Chord / Fused Together In Revolving Doors

Used drive : PIONEER DVD-RW DVR-107D Adapter: 1 ID: 0
Read mode : Secure with NO C2, accurate stream, disable cache
Read offset correction : 48
Overread into Lead-In and Lead-Out : No

Used output format : C:\Program Files\Exact Audio Copy\flac.exe (User Defined Encoder)
192 kBit/s
Additional command line options : -8 -A tukey(0.25) -A gauss(0.1875) -b 4096 -V -T "artist=%a" -T "title=%t" -T "album=%g" -T "date=%y" -T "tracknumber=%n" -T "genre=%m" %s --sector-align

Other options :
Fill up missing offset samples with silence : Yes
Delete leading and trailing silent blocks : No
Installed external ASPI interface


Track 1
Filename G:\Torrents\The Red Chord - Fused Together [F]\01 - The Red Chord - Nihilist.wav

Pre-gap length 0:00:02.00

Peak level 98.8 %
Track quality 100.0 %
Test CRC 3B54C42E
Copy CRC 3B54C42E
Copy OK

Track 2
Filename G:\Torrents\The Red Chord - Fused Together [F]\02 - The Red Chord - That Certain Special Ugly.wav

Peak level 98.8 %
Track quality 99.9 %
Test CRC 0ACAB981
Copy CRC 0ACAB981
Copy OK

Track 3
Filename G:\Torrents\The Red Chord - Fused Together [F]\03 - The Red Chord - Catalepsy.wav

Peak level 98.8 %
Track quality 100.0 %
Test CRC F7D810B8
Copy CRC F7D810B8
Copy OK

Track 4
Filename G:\Torrents\The Red Chord - Fused Together [F]\04 - The Red Chord - Like A Train Through A Pigeon.wav

Peak level 98.8 %
Track quality 100.0 %
Test CRC 1B66EE9E
Copy CRC 1B66EE9E
Copy OK

Track 5
Filename G:\Torrents\The Red Chord - Fused Together [F]\05 - The Red Chord - He Was Stretching, And Then He Climbed Up There.wav

Peak level 80.0 %
Track quality 100.0 %
Test CRC CFEC00A2
Copy CRC CFEC00A2
Copy OK

Track 6
Filename G:\Torrents\The Red Chord - Fused Together [F]\06 - The Red Chord - Breed The Cancer.wav

Peak level 98.8 %
Track quality 100.0 %
Test CRC F01C258D
Copy CRC F01C258D
Copy OK

Track 7
Filename G:\Torrents\The Red Chord - Fused Together [F]\07 - The Red Chord - L Formation.wav

Peak level 98.8 %
Track quality 100.0 %
Test CRC B35778EC
Copy CRC B35778EC
Copy OK

Track 8
Filename G:\Torrents\The Red Chord - Fused Together [F]\08 - The Red Chord - Dreaming In Dog Years.wav

Peak level 98.8 %
Track quality 100.0 %
Test CRC AC5DF61F
Copy CRC AC5DF61F
Copy OK

Track 9
Filename G:\Torrents\The Red Chord - Fused Together [F]\09 - The Red Chord - Sixteen Bit Fingerprint.wav

Peak level 98.8 %
Track quality 100.0 %
Test CRC C04DD99C
Copy CRC C04DD99C
Copy OK

Track 10
Filename G:\Torrents\The Red Chord - Fused Together [F]\10 - The Red Chord - Jar Full Of Bunny Parts (demo).wav

Peak level 100.0 %
Track quality 100.0 %
Test CRC C0AABE74
Copy CRC C0AABE74
Copy OK

Track 11
Filename G:\Torrents\The Red Chord - Fused Together [F]\11 - The Red Chord - Better Judgement (demo).wav

Peak level 100.0 %
Track quality 99.9 %
Test CRC C2374DDF
Copy CRC C2374DDF
Copy OK

No errors occured


End of status report

[Для просмотра данной ссылки нужно зарегистрироваться]

Последний раз редактировалось xRaiderx; 16.04.2009 в 20:28.
xRaiderx вне форума  
Ответить с цитированием
Этот пользователь сказал Спасибо xRaiderx за это полезное сообщение:
toshi (18.04.2009)
Старый 16.04.2009, 22:57   #2
Дружище
 
Аватар для xRaiderx
 
Регистрация: 03.10.2007
Адрес: Дзержинск
Пол: M
Сообщений: 719
Поблагодарил: 528
Поблагодарили 1,766 раз в 549 сообщениях
Открыли хайд :
0 в этом сообщении
373 Всего


По умолчанию

Альбом: Clients
Дата выпуска: 2005
Жанр: Grind Metal
Формат: FLAC (tracks)
Битрейт: 950-1078 kbps
Продолжительность: 00:37:24

Треклист:
01. Fixation on Plastics [00:02:44]
02. Lay The Tarp [00:03:12]
03. Black Santa [00:02:52]
04. Antman [00:03:07]
05. Clients [00:00:59]
06. Upper Decker [00:05:17]
07. Hospice Residence [00:03:14]
08. Dragon Wagon [00:03:01]
09. Love on The Concrete [00:02:57]
10. Blue Line Cretin [00:02:27]
11. He Was Dead When I Got There [00:07:29]

Отчёт EAC:

EAC extraction logfile from 4. April 2008, 17:27 for CD
The Red Chord / Clients

Used drive : PIONEER DVD-RW DVR-107D Adapter: 1 ID: 0
Read mode : Secure with NO C2, accurate stream, disable cache
Read offset correction : 48
Overread into Lead-In and Lead-Out : No

Used output format : C:\Program Files\Exact Audio Copy\flac.exe (User Defined Encoder)
192 kBit/s
Additional command line options : -8 -A tukey(0.25) -A gauss(0.1875) -b 4096 -V -T "artist=%a" -T "title=%t" -T "album=%g" -T "date=%y" -T "tracknumber=%n" -T "genre=%m" %s --sector-align

Other options :
Fill up missing offset samples with silence : Yes
Delete leading and trailing silent blocks : No
Installed external ASPI interface


Track 1
Filename G:\Torrents\The Red Chord - Clients [F]\01 - The Red Chord - Fixation on Plastics.wav

Pre-gap length 0:00:02.00

Peak level 99.1 %
Track quality 100.0 %
Test CRC 4D298863
Copy CRC 4D298863
Copy OK

Track 2
Filename G:\Torrents\The Red Chord - Clients [F]\02 - The Red Chord - Lay The Tarp.wav

Peak level 99.1 %
Track quality 100.0 %
Test CRC CE96C956
Copy CRC CE96C956
Copy OK

Track 3
Filename G:\Torrents\The Red Chord - Clients [F]\03 - The Red Chord - Black Santa.wav

Peak level 99.1 %
Track quality 100.0 %
Test CRC C7152A79
Copy CRC C7152A79
Copy OK

Track 4
Filename G:\Torrents\The Red Chord - Clients [F]\04 - The Red Chord - Antman.wav

Peak level 99.1 %
Track quality 100.0 %
Test CRC A83C5EDD
Copy CRC A83C5EDD
Copy OK

Track 5
Filename G:\Torrents\The Red Chord - Clients [F]\05 - The Red Chord - Clients.wav

Peak level 98.5 %
Track quality 100.0 %
Test CRC EC0645C5
Copy CRC EC0645C5
Copy OK

Track 6
Filename G:\Torrents\The Red Chord - Clients [F]\06 - The Red Chord - Upper Decker.wav

Peak level 99.1 %
Track quality 100.0 %
Test CRC 7FBC1572
Copy CRC 7FBC1572
Copy OK

Track 7
Filename G:\Torrents\The Red Chord - Clients [F]\07 - The Red Chord - Hospice Residence.wav

Peak level 99.1 %
Track quality 100.0 %
Test CRC 7E8FA258
Copy CRC 7E8FA258
Copy OK

Track 8
Filename G:\Torrents\The Red Chord - Clients [F]\08 - The Red Chord - Dragon Wagon.wav

Peak level 99.1 %
Track quality 100.0 %
Test CRC D190FDC9
Copy CRC D190FDC9
Copy OK

Track 9
Filename G:\Torrents\The Red Chord - Clients [F]\09 - The Red Chord - Love on The Concrete.wav

Peak level 98.5 %
Track quality 100.0 %
Test CRC 8BD57D7E
Copy CRC 8BD57D7E
Copy OK

Track 10
Filename G:\Torrents\The Red Chord - Clients [F]\10 - The Red Chord - Blue Line Cretin.wav

Peak level 99.1 %
Track quality 100.0 %
Test CRC 98395E4F
Copy CRC 98395E4F
Copy OK

Track 11
Filename G:\Torrents\The Red Chord - Clients [F]\11 - The Red Chord - He Was Dead When I Got There.wav

Peak level 99.1 %
Track quality 100.0 %
Test CRC 3F115414
Copy CRC 3F115414
Copy OK

No errors occured


End of status report

[Для просмотра данной ссылки нужно зарегистрироваться]
xRaiderx вне форума  
Ответить с цитированием
Этот пользователь сказал Спасибо xRaiderx за это полезное сообщение:
toshi (18.04.2009)
Старый 17.04.2009, 00:57   #3
Дружище
 
Аватар для xRaiderx
 
Регистрация: 03.10.2007
Адрес: Дзержинск
Пол: M
Сообщений: 719
Поблагодарил: 528
Поблагодарили 1,766 раз в 549 сообщениях
Открыли хайд :
0 в этом сообщении
373 Всего


По умолчанию

Альбом: Prey For Eyes
Дата выпуска: 2007
Жанр: Death Metal
Формат: FLAC (tracks)
Битрейт: 1022-1082 kbps
Продолжительность: 00:45:53

Треклист:
01. Film Critiques And Militia Men [00:01:04]
02. Dread Prevailed [00:03:16]
03. It Runs In The Family [00:02:08]
04. Send The Death Storm [00:03:24]
05. Pray For Eyes [00:04:32]
06. Responsibles [00:03:41]
07. Midas Touch [00:02:38]
08. Tread On The Necks Of Kings [00:03:07]
09. It Came From Over There (Instrumental) [00:04:15]
10. Intelligence Has Been Compromised [00:02:43]
11. Open Eyed Beast Attack [00:02:37]
12. Birdbath [00:02:24]
13. Bone Needle [00:03:39]
14. Seminar (Final Fantasy) [00:06:18]

Отчёт EAC:

EAC extraction logfile from 9. November 2007, 4:17 for CD
The Red Chord / Prey For Eyes

Used drive : TSSTcorpCDDVDW SH-S203B Adapter: 2 ID: 0
Read mode : Secure with NO C2, accurate stream, disable cache
Read offset correction : 6
Overread into Lead-In and Lead-Out : No

Used output format : C:\Program Files (x86)\Exact Audio Copy\flac.exe (User Defined Encoder)
192 kBit/s
Additional command line options : -8 -P 4096 -T "artist=%a" -T "title=%t" -T "album=%g" -T "date=%y" -T "tracknumber=%n" -T "genre=%m" -T "encodedby=PX-W4824A => EAC 0.95 pb5 secure => FLAC 1.1.2 -8" -V --delete-input-file %s

Other options :
Fill up missing offset samples with silence : Yes
Delete leading and trailing silent blocks : No
Installed external ASPI interface


Track 1
Filename C:\Program Files (x86)\Exact Audio Copy\Prey For Eyes\01 - The Red Chord - Film Critiques And Militia Men.wav

Pre-gap length 0:00:02.00

Peak level 100.0 %
Track quality 100.0 %
Copy CRC A162044C
Copy OK

Track 2
Filename C:\Program Files (x86)\Exact Audio Copy\Prey For Eyes\02 - The Red Chord - Dread Prevailed.wav

Peak level 100.0 %
Track quality 100.0 %
Copy CRC FCCB7AC9
Copy OK

Track 3
Filename C:\Program Files (x86)\Exact Audio Copy\Prey For Eyes\03 - The Red Chord - It Runs In The Family.wav

Peak level 100.0 %
Track quality 100.0 %
Copy CRC EB8B32F9
Copy OK

Track 4
Filename C:\Program Files (x86)\Exact Audio Copy\Prey For Eyes\04 - The Red Chord - Send The Death Storm.wav

Peak level 100.0 %
Track quality 100.0 %
Copy CRC 1DF4938D
Copy OK

Track 5
Filename C:\Program Files (x86)\Exact Audio Copy\Prey For Eyes\05 - The Red Chord - Pray For Eyes.wav

Peak level 100.0 %
Track quality 100.0 %
Copy CRC 7D252E37
Copy OK

Track 6
Filename C:\Program Files (x86)\Exact Audio Copy\Prey For Eyes\06 - The Red Chord - Responsibles.wav

Peak level 100.0 %
Track quality 99.9 %
Copy CRC BF9615E5
Copy OK

Track 7
Filename C:\Program Files (x86)\Exact Audio Copy\Prey For Eyes\07 - The Red Chord - Midas Touch.wav

Peak level 100.0 %
Track quality 100.0 %
Copy CRC 308A2437
Copy OK

Track 8
Filename C:\Program Files (x86)\Exact Audio Copy\Prey For Eyes\08 - The Red Chord - Tread On The Necks Of Kings.wav

Peak level 100.0 %
Track quality 100.0 %
Copy CRC 6C2DD710
Copy OK

Track 9
Filename C:\Program Files (x86)\Exact Audio Copy\Prey For Eyes\09 - The Red Chord - It Came From Over There (Instrumental).wav

Peak level 100.0 %
Track quality 99.9 %
Copy CRC 1A550CD8
Copy OK

Track 10
Filename C:\Program Files (x86)\Exact Audio Copy\Prey For Eyes\10 - The Red Chord - Intelligence Has Been Compromised.wav

Peak level 100.0 %
Track quality 100.0 %
Copy CRC 97930A32
Copy OK

Track 11
Filename C:\Program Files (x86)\Exact Audio Copy\Prey For Eyes\11 - The Red Chord - Open Eyed Beast Attack.wav

Peak level 100.0 %
Track quality 100.0 %
Copy CRC CD51C91A
Copy OK

Track 12
Filename C:\Program Files (x86)\Exact Audio Copy\Prey For Eyes\12 - The Red Chord - Birdbath.wav

Peak level 100.0 %
Track quality 100.0 %
Copy CRC A592DF28
Copy OK

Track 13
Filename C:\Program Files (x86)\Exact Audio Copy\Prey For Eyes\13 - The Red Chord - Bone Needle.wav

Peak level 100.0 %
Track quality 100.0 %
Copy CRC D0BD6506
Copy OK

Track 14
Filename C:\Program Files (x86)\Exact Audio Copy\Prey For Eyes\14 - The Red Chord - Seminar (Final Fantasy).wav

Peak level 100.0 %
Track quality 99.9 %
Copy CRC 0DDDAC86
Copy OK

No errors occured


End of status report

[Для просмотра данной ссылки нужно зарегистрироваться]
xRaiderx вне форума  
Ответить с цитированием
Этот пользователь сказал Спасибо xRaiderx за это полезное сообщение:
toshi (18.04.2009)
Ответ


Здесь присутствуют: 1 (пользователей: 0 , гостей: 1)
 
Опции темы
Опции просмотра

Ваши права в разделе
Вы не можете создавать новые темы
Вы не можете отвечать в темах
Вы не можете прикреплять вложения
Вы не можете редактировать свои сообщения

BB коды Вкл.
Смайлы Вкл.
[IMG] код Вкл.
HTML код Выкл.
Trackbacks are Выкл.
Pingbacks are Выкл.
Refbacks are Выкл.


Часовой пояс GMT +3, время: 01:49.