Вернуться   Нижегородский Форум Друзей > Обсуждаем и качаем > Музыка > Lossless > Hard Клуб > Death Metal Lossless
Забыли пароль? Регистрация



Death Metal Lossless Death Metal / Brutal Death / Technical Death / Melodic Death


Ответ
 
Опции темы Опции просмотра
Старый 18.04.2009, 02:43   #1
Дружище
 
Аватар для xRaiderx
 
Регистрация: 03.10.2007
Адрес: Дзержинск
Пол: M
Сообщений: 719
Поблагодарил: 528
Поблагодарили 1,766 раз в 549 сообщениях
Открыли хайд :
0 в этом сообщении
373 Всего


По умолчанию [Melodic Death Metal / Metalcore] Fear My Thoughts

Альбом: 23
Дата выпуска: 2001
Формат: FLAC (tracks)
Битрейт: 767-1034 kbps
Продолжительность: 00:44:04

Треклист:
01. Failure [00:06:33]
02. Progression [00:04:22]
03. 529 [00:03:16]
04. When Will It End [00:06:03]
05. Killed For Profit [00:02:05]
06. 9284 [00:01:14]
07. Words Can't Express [00:05:52]
08. My Strength My Weakness [00:14:36]

Отчёт EAC:

Exact Audio Copy V0.99 prebeta 4 from 23. January 2008

EAC extraction logfile from 3. November 2008, 17:03

Fear My Thoughts / 23

Used drive : LITE-ON LTR-24102M Adapter: 1 ID: 0

Read mode : Secure
Utilize accurate stream : Yes
Defeat audio cache : Yes
Make use of C2 pointers : No

Read offset correction : 12
Overread into Lead-In and Lead-Out : No
Fill up missing offset samples with silence : Yes
Delete leading and trailing silent blocks : No
Null samples used in CRC calculations : Yes
Used interface : Installed external ASPI interface
Gap handling : Appended to previous track

Used output format : User Defined Encoder
Selected bitrate : 320 kBit/s
Quality : High
Add ID3 tag : No
Command line compressor : C:\Program Files\Exact Audio Copy\Flac\flac.exe
Additional command line options : -V -8 -T "artist=%a" -T "title=%t" -T "album=%g" -T "date=%y" -T "tracknumber=%n" -T "genre=%m" %s


TOC of the extracted CD

Track | Start | Length | Start sector | End sector
---------------------------------------------------------
1 | 0:00.00 | 6:33.52 | 0 | 29526
2 | 6:33.52 | 4:22.02 | 29527 | 49178
3 | 10:55.54 | 3:16.44 | 49179 | 63922
4 | 14:12.23 | 6:03.07 | 63923 | 91154
5 | 20:15.30 | 2:05.45 | 91155 | 100574
6 | 22:21.00 | 1:14.30 | 100575 | 106154
7 | 23:35.30 | 5:52.37 | 106155 | 132591
8 | 29:27.67 | 14:36.32 | 132592 | 198323


Track 1

Filename E:\My Music FLAC\Fear_My_Thoughts-23-2001\01 - Failure.wav

Pre-gap length 0:00:02.00

Peak level 98.9 %
Track quality 100.0 %
Test CRC 67223E28
Copy CRC 67223E28
Track not present in AccurateRip database
Copy OK

Track 2

Filename E:\My Music FLAC\Fear_My_Thoughts-23-2001\02 - Progression.wav

Pre-gap length 0:00:00.38

Peak level 98.9 %
Track quality 100.0 %
Test CRC 0E1B5CEF
Copy CRC 0E1B5CEF
Track not present in AccurateRip database
Copy OK

Track 3

Filename E:\My Music FLAC\Fear_My_Thoughts-23-2001\03 - 529.wav

Pre-gap length 0:00:02.00

Peak level 98.9 %
Track quality 99.9 %
Test CRC CB0A310E
Copy CRC CB0A310E
Track not present in AccurateRip database
Copy OK

Track 4

Filename E:\My Music FLAC\Fear_My_Thoughts-23-2001\04 - When Will It End.wav

Peak level 98.9 %
Track quality 100.0 %
Test CRC E01B7ED5
Copy CRC E01B7ED5
Track not present in AccurateRip database
Copy OK

Track 5

Filename E:\My Music FLAC\Fear_My_Thoughts-23-2001\05 - Killed For Profit.wav

Peak level 98.9 %
Track quality 100.0 %
Test CRC BC452A0A
Copy CRC BC452A0A
Track not present in AccurateRip database
Copy OK

Track 6

Filename E:\My Music FLAC\Fear_My_Thoughts-23-2001\06 - 9284.wav

Pre-gap length 0:00:01.00

Peak level 90.0 %
Track quality 99.8 %
Test CRC 6816E4C9
Copy CRC 6816E4C9
Track not present in AccurateRip database
Copy OK

Track 7

Filename E:\My Music FLAC\Fear_My_Thoughts-23-2001\07 - Words Can't Express.wav

Pre-gap length 0:00:00.41

Peak level 98.9 %
Track quality 100.0 %
Test CRC 45EA5EAE
Copy CRC 45EA5EAE
Track not present in AccurateRip database
Copy OK

Track 8

Filename E:\My Music FLAC\Fear_My_Thoughts-23-2001\08 - My Strength My Weakness.wav

Pre-gap length 0:00:02.00

Peak level 98.9 %
Track quality 100.0 %
Test CRC 7DE97250
Copy CRC 7DE97250
Track not present in AccurateRip database
Copy OK


None of the tracks are present in the AccurateRip database

No errors occurred

End of status report

[Для просмотра данной ссылки нужно зарегистрироваться]
xRaiderx вне форума  
Ответить с цитированием
Эти 5 пользователя(ей) сказали Спасибо xRaiderx за это полезное сообщение:
keteporta (26.09.2011), Qwenn (20.04.2009), Tjodmar (18.04.2009), toshi (18.04.2009), Wanish666 (18.04.2009)
Старый 18.04.2009, 02:48   #2
Дружище
 
Аватар для xRaiderx
 
Регистрация: 03.10.2007
Адрес: Дзержинск
Пол: M
Сообщений: 719
Поблагодарил: 528
Поблагодарили 1,766 раз в 549 сообщениях
Открыли хайд :
0 в этом сообщении
373 Всего


По умолчанию

Альбом: Vitriol
Дата выпуска: 2003
Формат: FLAC (tracks)
Битрейт: 805-1075 kbps
Продолжительность: 00:32:46

Треклист:
01. Aponia [00:02:24]
02. 6 Billion Mirrors [00:05:56]
03. A New Enlightenment Must Come To Find Out What Matters [00:03:57]
04. Ataraxia [00:02:47]
05. Nothing That Could Be Compared [00:05:38]
06. As I Bleed [00:06:51]
07. Fear My Thoughts [00:05:10]

Отчёт EAC:

Exact Audio Copy V0.99 prebeta 4 from 23. January 2008

EAC extraction logfile from 3. November 2008, 18:00

Fear My Thoughts / Vitriol

Used drive : LITE-ON LTR-24102M Adapter: 1 ID: 0

Read mode : Secure
Utilize accurate stream : Yes
Defeat audio cache : Yes
Make use of C2 pointers : No

Read offset correction : 12
Overread into Lead-In and Lead-Out : No
Fill up missing offset samples with silence : Yes
Delete leading and trailing silent blocks : No
Null samples used in CRC calculations : Yes
Used interface : Installed external ASPI interface
Gap handling : Appended to previous track

Used output format : User Defined Encoder
Selected bitrate : 320 kBit/s
Quality : High
Add ID3 tag : No
Command line compressor : C:\Program Files\Exact Audio Copy\Flac\flac.exe
Additional command line options : -V -8 -T "artist=%a" -T "title=%t" -T "album=%g" -T "date=%y" -T "tracknumber=%n" -T "genre=%m" %s


TOC of the extracted CD

Track | Start | Length | Start sector | End sector
---------------------------------------------------------
1 | 0:00.00 | 2:24.55 | 0 | 10854
2 | 2:24.55 | 5:56.38 | 10855 | 37592
3 | 8:21.18 | 3:57.21 | 37593 | 55388
4 | 12:18.39 | 2:47.14 | 55389 | 67927
5 | 15:05.53 | 5:38.39 | 67928 | 93316
6 | 20:44.17 | 6:51.43 | 93317 | 124184
7 | 27:35.60 | 5:10.34 | 124185 | 147468


Track 1

Filename E:\My Music FLAC\Fear_My_Thoughts-Vitriol-2003\01 - Aponia.wav

Pre-gap length 0:00:02.00

Peak level 98.8 %
Track quality 100.0 %
Test CRC DB307928
Copy CRC DB307928
Track not present in AccurateRip database
Copy OK

Track 2

Filename E:\My Music FLAC\Fear_My_Thoughts-Vitriol-2003\02 - 6 Billion Mirrors.wav

Pre-gap length 0:00:01.60

Peak level 98.8 %
Track quality 100.0 %
Test CRC EE264CD2
Copy CRC EE264CD2
Track not present in AccurateRip database
Copy OK

Track 3

Filename E:\My Music FLAC\Fear_My_Thoughts-Vitriol-2003\03 - A New Enlightenment Must Come To Find Out What Matters.wav

Pre-gap length 0:00:01.60

Peak level 98.8 %
Track quality 100.0 %
Test CRC BD1C7F5F
Copy CRC BD1C7F5F
Track not present in AccurateRip database
Copy OK

Track 4

Filename E:\My Music FLAC\Fear_My_Thoughts-Vitriol-2003\04 - Ataraxia.wav

Pre-gap length 0:00:01.60

Peak level 98.8 %
Track quality 100.0 %
Test CRC C8C6C4E3
Copy CRC C8C6C4E3
Track not present in AccurateRip database
Copy OK

Track 5

Filename E:\My Music FLAC\Fear_My_Thoughts-Vitriol-2003\05 - Nothing That Could Be Compared.wav

Pre-gap length 0:00:01.60

Peak level 98.8 %
Track quality 100.0 %
Test CRC 39AE06B6
Copy CRC 39AE06B6
Track not present in AccurateRip database
Copy OK

Track 6

Filename E:\My Music FLAC\Fear_My_Thoughts-Vitriol-2003\06 - As I Bleed.wav

Pre-gap length 0:00:01.60

Peak level 98.8 %
Track quality 100.0 %
Test CRC D6997D1D
Copy CRC D6997D1D
Track not present in AccurateRip database
Copy OK

Track 7

Filename E:\My Music FLAC\Fear_My_Thoughts-Vitriol-2003\07 - Fear My Thoughts.wav

Pre-gap length 0:00:01.60

Peak level 98.8 %
Track quality 100.0 %
Test CRC 4E92DB05
Copy CRC 4E92DB05
Track not present in AccurateRip database
Copy OK


None of the tracks are present in the AccurateRip database

No errors occurred

End of status report

[Для просмотра данной ссылки нужно зарегистрироваться]
xRaiderx вне форума  
Ответить с цитированием
Эти 4 пользователя(ей) сказали Спасибо xRaiderx за это полезное сообщение:
Qwenn (20.04.2009), Tjodmar (18.04.2009), toshi (18.04.2009), Wanish666 (18.04.2009)
Старый 18.04.2009, 03:14   #3
Дружище
 
Аватар для xRaiderx
 
Регистрация: 03.10.2007
Адрес: Дзержинск
Пол: M
Сообщений: 719
Поблагодарил: 528
Поблагодарили 1,766 раз в 549 сообщениях
Открыли хайд :
0 в этом сообщении
373 Всего


По умолчанию

Альбом: The Great Collapse
Дата выпуска: 2004
Жанр: Metalcore
Формат: FLAC (tracks)
Битрейт: 608-1145 kbps
Продолжительность: 00:43:20

Треклист:
01. Velvet [00:00:34]
02. The Great Collapse [00:06:12]
03. Rituals [00:05:06]
04. Sirens Singing [00:04:52]
05. Hollow Inside [00:04:40]
06. The Architect [00:00:45]
07. Challenge [00:06:08]
08. Mission Immortality [00:06:05]
09. Norm AD [00:02:35]
10. Reign [00:06:19]

Отчёт EAC:

Exact Audio Copy V0.99 prebeta 4 from 23. January 2008

EAC extraction logfile from 22. July 2008, 22:51

Fear My Thoughts / The Great Collapse

Used drive : _NEC DVD+-RW ND-6650A Adapter: 0 ID: 1

Read mode : Secure
Utilize accurate stream : Yes
Defeat audio cache : Yes
Make use of C2 pointers : No

Read offset correction : 48
Overread into Lead-In and Lead-Out : No
Fill up missing offset samples with silence : Yes
Delete leading and trailing silent blocks : No
Null samples used in CRC calculations : Yes
Used interface : Installed external ASPI interface
Gap handling : Appended to previous track

Used output format : User Defined Encoder
Selected bitrate : 128 kBit/s
Quality : High
Add ID3 tag : No
Command line compressor : C:\Programme\Exact Audio Copy\flac-1.1.4-win\flac-1.1.4-win\bin\flac.exe
Additional command line options : -8 -A tukey(0.25) -A gauss(0.1875) -b 4096 -V -T "artist=%a" -T "title=%t" -T "album=%g" -T "date=%y" -T "tracknumber=%n" -T "genre=%m" %s --sector-align


TOC of the extracted CD

Track | Start | Length | Start sector | End sector
---------------------------------------------------------
1 | 0:00.00 | 0:34.30 | 0 | 2579
2 | 0:34.30 | 6:12.72 | 2580 | 30551
3 | 6:47.27 | 5:06.15 | 30552 | 53516
4 | 11:53.42 | 4:52.30 | 53517 | 75446
5 | 16:45.72 | 4:40.58 | 75447 | 96504
6 | 21:26.55 | 0:45.45 | 96505 | 99924
7 | 22:12.25 | 6:08.67 | 99925 | 127591
8 | 28:21.17 | 6:05.33 | 127592 | 154999
9 | 34:26.50 | 2:35.02 | 155000 | 166626
10 | 37:01.52 | 6:19.20 | 166627 | 195071


Track 1

Filename G:\-downloads-\-eac-\-flac-\Fear My Thoughts - The Great Collapse\01 - Fear My Thoughts - Velvet.wav

Pre-gap length 0:00:02.00

Peak level 89.0 %
Track quality 100.0 %
Test CRC 84CBFAB8
Copy CRC 84CBFAB8
Accurately ripped (confidence 2) [0C751C15]
Copy OK

Track 2

Filename G:\-downloads-\-eac-\-flac-\Fear My Thoughts - The Great Collapse\02 - Fear My Thoughts - The Great Collapse.wav

Peak level 98.7 %
Track quality 100.0 %
Test CRC 5E72CB18
Copy CRC 5E72CB18
Accurately ripped (confidence 2) [D017EE35]
Copy OK

Track 3

Filename G:\-downloads-\-eac-\-flac-\Fear My Thoughts - The Great Collapse\03 - Fear My Thoughts - Rituals.wav

Peak level 98.7 %
Track quality 100.0 %
Test CRC E4BD8C39
Copy CRC E4BD8C39
Accurately ripped (confidence 2) [97BF7E88]
Copy OK

Track 4

Filename G:\-downloads-\-eac-\-flac-\Fear My Thoughts - The Great Collapse\04 - Fear My Thoughts - Sirens Singing.wav

Peak level 98.7 %
Track quality 100.0 %
Test CRC 0EDEB30D
Copy CRC 0EDEB30D
Accurately ripped (confidence 2) [8AE41E60]
Copy OK

Track 5

Filename G:\-downloads-\-eac-\-flac-\Fear My Thoughts - The Great Collapse\05 - Fear My Thoughts - Hollow Inside.wav

Peak level 98.7 %
Track quality 100.0 %
Test CRC 98002E87
Copy CRC 98002E87
Accurately ripped (confidence 2) [AD82DE43]
Copy OK

Track 6

Filename G:\-downloads-\-eac-\-flac-\Fear My Thoughts - The Great Collapse\06 - Fear My Thoughts - The Architect.wav

Peak level 83.7 %
Track quality 100.0 %
Test CRC 16FF7538
Copy CRC 16FF7538
Accurately ripped (confidence 2) [0A0EC51D]
Copy OK

Track 7

Filename G:\-downloads-\-eac-\-flac-\Fear My Thoughts - The Great Collapse\07 - Fear My Thoughts - Challenge.wav

Peak level 98.7 %
Track quality 100.0 %
Test CRC E560217C
Copy CRC E560217C
Accurately ripped (confidence 2) [4DB2D2A4]
Copy OK

Track 8

Filename G:\-downloads-\-eac-\-flac-\Fear My Thoughts - The Great Collapse\08 - Fear My Thoughts - Mission Immortality.wav

Peak level 98.7 %
Track quality 100.0 %
Test CRC A4FD758E
Copy CRC A4FD758E
Accurately ripped (confidence 2) [119ECA2B]
Copy OK

Track 9

Filename G:\-downloads-\-eac-\-flac-\Fear My Thoughts - The Great Collapse\09 - Fear My Thoughts - Norm AD.wav

Peak level 98.7 %
Track quality 100.0 %
Test CRC 7FFC6158
Copy CRC 7FFC6158
Accurately ripped (confidence 2) [8C66FF6C]
Copy OK

Track 10

Filename G:\-downloads-\-eac-\-flac-\Fear My Thoughts - The Great Collapse\10 - Fear My Thoughts - Reign.wav

Peak level 98.7 %
Track quality 100.0 %
Test CRC AF7141FA
Copy CRC AF7141FA
Accurately ripped (confidence 2) [E6F3FF18]
Copy OK


All tracks accurately ripped

No errors occurred

End of status report

[Для просмотра данной ссылки нужно зарегистрироваться]
xRaiderx вне форума  
Ответить с цитированием
Эти 4 пользователя(ей) сказали Спасибо xRaiderx за это полезное сообщение:
Qwenn (20.04.2009), Tjodmar (18.04.2009), toshi (18.04.2009), Wanish666 (18.04.2009)
Старый 18.04.2009, 08:26   #4
Знакомый
 
Аватар для Tjodmar
 
Регистрация: 20.11.2008
Адрес: Балахна
Пол: M
Провайдер: ВТ
Сообщений: 66
Поблагодарил: 244
Поблагодарили 50 раз в 23 сообщениях
Открыли хайд :
0 в этом сообщении
0 Всего


По умолчанию

О, а вот за этих ребят отдельное спасибо!Откуда 2004, если не секрет?Смотрел на вате и торрентсру пару недель назад, там не было его
Tjodmar вне форума  
Ответить с цитированием
Старый 18.04.2009, 08:50   #5
Дружище
 
Аватар для xRaiderx
 
Регистрация: 03.10.2007
Адрес: Дзержинск
Пол: M
Сообщений: 719
Поблагодарил: 528
Поблагодарили 1,766 раз в 549 сообщениях
Открыли хайд :
0 в этом сообщении
373 Всего


По умолчанию

Tjodmar, с вафлей. С меня ещё Vulcanus и Isolation
xRaiderx вне форума  
Ответить с цитированием
Этот пользователь сказал Спасибо xRaiderx за это полезное сообщение:
Tjodmar (18.04.2009)
Старый 18.04.2009, 09:41   #6
Знакомый
 
Аватар для Tjodmar
 
Регистрация: 20.11.2008
Адрес: Балахна
Пол: M
Провайдер: ВТ
Сообщений: 66
Поблагодарил: 244
Поблагодарили 50 раз в 23 сообщениях
Открыли хайд :
0 в этом сообщении
0 Всего


По умолчанию

Буду ждать, хотя они мне несколько меньше нравятся, а как же 2006, он будет? Для меня самый сильный у них
Tjodmar вне форума  
Ответить с цитированием
Старый 18.04.2009, 11:50   #7
Дружище
 
Аватар для xRaiderx
 
Регистрация: 03.10.2007
Адрес: Дзержинск
Пол: M
Сообщений: 719
Поблагодарил: 528
Поблагодарили 1,766 раз в 549 сообщениях
Открыли хайд :
0 в этом сообщении
373 Всего


По умолчанию

Цитата:
Сообщение от Tjodmar Посмотреть сообщение
а как же 2006, он будет? Для меня самый сильный у них
Hell Sweet Hell? Он 2005 и его нет нигде.
xRaiderx вне форума  
Ответить с цитированием
Старый 18.04.2009, 15:54   #8
Знакомый
 
Аватар для Tjodmar
 
Регистрация: 20.11.2008
Адрес: Балахна
Пол: M
Провайдер: ВТ
Сообщений: 66
Поблагодарил: 244
Поблагодарили 50 раз в 23 сообщениях
Открыли хайд :
0 в этом сообщении
0 Всего


По умолчанию

Ну да, 2005, ошибсяТогда сам потом стяну - на торрентсру есть
Tjodmar вне форума  
Ответить с цитированием
Ответ


Здесь присутствуют: 1 (пользователей: 0 , гостей: 1)
 
Опции темы
Опции просмотра

Ваши права в разделе
Вы не можете создавать новые темы
Вы не можете отвечать в темах
Вы не можете прикреплять вложения
Вы не можете редактировать свои сообщения

BB коды Вкл.
Смайлы Вкл.
[IMG] код Вкл.
HTML код Выкл.
Trackbacks are Выкл.
Pingbacks are Выкл.
Refbacks are Выкл.


Часовой пояс GMT +3, время: 13:59.