Вернуться   Нижегородский Форум Друзей > Обсуждаем и качаем > Музыка > Lossless > Hard Клуб > Death Metal Lossless
Забыли пароль? Регистрация



Death Metal Lossless Death Metal / Brutal Death / Technical Death / Melodic Death


Ответ
 
Опции темы Опции просмотра
Старый 18.04.2009, 15:15   #1
Дружище
 
Аватар для xRaiderx
 
Регистрация: 03.10.2007
Адрес: Дзержинск
Пол: M
Сообщений: 719
Поблагодарил: 528
Поблагодарили 1,766 раз в 549 сообщениях
Открыли хайд :
0 в этом сообщении
373 Всего


По умолчанию [Melodic Death Metal / Metalcore] Himsa

Альбом: Summon In Thunder
Дата выпуска: 2007
Жанр: Melodic Death Metal
Формат: FLAC (tracks)
Битрейт: 1031-1119 kbps
Продолжительность: 00:45:44

Треклист:
01. Reinventing The Noose [00:05:17]
02. Haunter [00:04:17]
03. Big Timber [00:04:00]
04. Given In To The Taking [00:04:02]
05. Skinwalkers [00:06:41]
06. Curseworship [00:04:03]
07. Hooks As Hands [00:04:16]
08. Ruin Them [00:03:33]
09. Den Of Infamy [00:04:15]
10. Unleash Carnage [00:02:02]
11. Summon In Thunder [00:03:13]

Отчёт EAC:
EAC extraction logfile from 18. March 2008, 17:29 for CD
Himsa / Summon In Thunder

Used drive : TOSHIBA CD/DVDW SDR5372V
Read mode : Secure with NO C2, accurate stream, disable cache
Read offset correction : 48
Overread into Lead-In and Lead-Out : No

Used output format : C:\Program Files\FLAC\flac.exe (User Defined Encoder)
128 kBit/s
Additional command line options : -8 -V -T "ARTIST=%a" -T "TITLE=%t" -T "ALBUM=%g" -T "DATE=%y" -T "TRACKNUMBER=%n" -T "GENRE=%m" -T "COMMENT=EAC Flac 1.2.1 -8" %s

Other options :
Fill up missing offset samples with silence : Yes
Delete leading and trailing silent blocks : No
Native Win32 interface for Win NT & 2000


Track 1
Filename E:\Lossless\Himsa - 2007 - Summon In Thunder\Himsa - 01 - Reinventing The Noose.wav

Pre-gap length 0:00:02.00

Peak level 100.0 %
Track quality 100.0 %
Test CRC B7780566
Copy CRC B7780566
Copy OK

Track 2
Filename E:\Lossless\Himsa - 2007 - Summon In Thunder\Himsa - 02 - Haunter.wav

Pre-gap length 0:00:02.00

Peak level 100.0 %
Track quality 100.0 %
Test CRC 4C73F85D
Copy CRC 4C73F85D
Copy OK

Track 3
Filename E:\Lossless\Himsa - 2007 - Summon In Thunder\Himsa - 03 - Big Timber.wav

Pre-gap length 0:00:02.00

Peak level 100.0 %
Track quality 100.0 %
Test CRC F4154DAD
Copy CRC F4154DAD
Copy OK

Track 4
Filename E:\Lossless\Himsa - 2007 - Summon In Thunder\Himsa - 04 - Given In To The Taking.wav

Pre-gap length 0:00:02.00

Peak level 100.0 %
Track quality 100.0 %
Test CRC 6475DB86
Copy CRC 6475DB86
Copy OK

Track 5
Filename E:\Lossless\Himsa - 2007 - Summon In Thunder\Himsa - 05 - Skinwalkers.wav

Pre-gap length 0:00:02.00

Peak level 100.0 %
Track quality 100.0 %
Test CRC 78A311D5
Copy CRC 78A311D5
Copy OK

Track 6
Filename E:\Lossless\Himsa - 2007 - Summon In Thunder\Himsa - 06 - Curseworship.wav

Pre-gap length 0:00:02.00

Peak level 100.0 %
Track quality 100.0 %
Test CRC 22F0EB5E
Copy CRC 22F0EB5E
Copy OK

Track 7
Filename E:\Lossless\Himsa - 2007 - Summon In Thunder\Himsa - 07 - Hooks As Hands.wav

Pre-gap length 0:00:02.00

Peak level 100.0 %
Track quality 100.0 %
Test CRC 77C773B8
Copy CRC 77C773B8
Copy OK

Track 8
Filename E:\Lossless\Himsa - 2007 - Summon In Thunder\Himsa - 08 - Ruin Them.wav

Pre-gap length 0:00:02.00

Peak level 100.0 %
Track quality 100.0 %
Test CRC A6EC7854
Copy CRC A6EC7854
Copy OK

Track 9
Filename E:\Lossless\Himsa - 2007 - Summon In Thunder\Himsa - 09 - Den Of Infamy.wav

Pre-gap length 0:00:02.00

Peak level 100.0 %
Track quality 100.0 %
Test CRC B7678BD7
Copy CRC B7678BD7
Copy OK

Track 10
Filename E:\Lossless\Himsa - 2007 - Summon In Thunder\Himsa - 10 - Unleash Carnage.wav

Pre-gap length 0:00:02.00

Peak level 100.0 %
Track quality 100.0 %
Test CRC 1047E89A
Copy CRC 1047E89A
Copy OK

Track 11
Filename E:\Lossless\Himsa - 2007 - Summon In Thunder\Himsa - 11 - Summon In Thunder.wav

Pre-gap length 0:00:02.00

Peak level 100.0 %
Track quality 100.0 %
Test CRC 14DAD298
Copy CRC 14DAD298
Copy OK


No errors occured


End of status report

[Для просмотра данной ссылки нужно зарегистрироваться]
xRaiderx вне форума  
Ответить с цитированием
Эти 6 пользователя(ей) сказали Спасибо xRaiderx за это полезное сообщение:
ACHERON (24.04.2009), niuniu (26.04.2009), Qwenn (20.04.2009), Tjodmar (23.04.2009), toshi (18.04.2009), Wanish666 (19.04.2009)
Старый 22.04.2009, 13:22   #2
Дружище
 
Аватар для xRaiderx
 
Регистрация: 03.10.2007
Адрес: Дзержинск
Пол: M
Сообщений: 719
Поблагодарил: 528
Поблагодарили 1,766 раз в 549 сообщениях
Открыли хайд :
0 в этом сообщении
373 Всего


По умолчанию

Альбом: Hail Horror
Дата выпуска: 2006
Формат: FLAC (tracks)
Битрейт: 1014-1096 kbps
Продолжительность: 00:46:16

Треклист:
01. Anathema [00:03:52]
02. Sleezevil [00:03:25]
03. The Destroyer [00:04:39]
04. Pestilence [00:05:08]
05. Wither [00:06:43]
06. Wolfchild [00:03:59]
07. Seminal [00:05:08]
08. The Speak In Swarms [00:03:59]
09. Calling In Silent [00:04:29]
10. Send Down Your Reign [00:04:50]

Отчёт EAC:

Exact Audio Copy V0.99 prebeta 4 from 23. January 2008

EAC extraction logfile from 24. September 2008, 23:48

Himsa / Hail Horror

Used drive : PIONEER DVD-RW DVR-109 Adapter: 1 ID: 0

Read mode : Secure
Utilize accurate stream : Yes
Defeat audio cache : Yes
Make use of C2 pointers : No

Read offset correction : 48
Overread into Lead-In and Lead-Out : No
Fill up missing offset samples with silence : Yes
Delete leading and trailing silent blocks : No
Null samples used in CRC calculations : No
Used interface : Native Win32 interface for Win NT & 2000
Gap handling : Appended to previous track

Used output format : Internal WAV Routines
Sample format : 44.100 Hz; 16 Bit; Stereo


TOC of the extracted CD

Track | Start | Length | Start sector | End sector
---------------------------------------------------------
1 | 0:00.00 | 3:52.49 | 0 | 17448
2 | 3:52.49 | 3:25.72 | 17449 | 32895
3 | 7:18.46 | 4:39.63 | 32896 | 53883
4 | 11:58.34 | 5:08.18 | 53884 | 77001
5 | 17:06.52 | 6:43.17 | 77002 | 107243
6 | 23:49.69 | 3:59.09 | 107244 | 125177
7 | 27:49.03 | 5:08.29 | 125178 | 148306
8 | 32:57.32 | 3:59.21 | 148307 | 166252
9 | 36:56.53 | 4:29.27 | 166253 | 186454
10 | 41:26.05 | 4:50.25 | 186455 | 208229


Track 1

Filename F:\[-Ripped CDs-]\Himsa - Hail Horror - 01 - Anathema.wav

Pre-gap length 0:00:02.00

Peak level 99.9 %
Track quality 100.0 %
Copy CRC 69840B19
Accurately ripped (confidence 3) [F81A7E82]
Copy OK

Track 2

Filename F:\[-Ripped CDs-]\Himsa - Hail Horror - 02 - Sleezevil.wav

Peak level 99.9 %
Track quality 100.0 %
Copy CRC 747D1FDA
Accurately ripped (confidence 3) [228FCBBF]
Copy OK

Track 3

Filename F:\[-Ripped CDs-]\Himsa - Hail Horror - 03 - The Destroyer.wav

Peak level 99.9 %
Track quality 100.0 %
Copy CRC 6B75283C
Accurately ripped (confidence 3) [704B5B5E]
Copy OK

Track 4

Filename F:\[-Ripped CDs-]\Himsa - Hail Horror - 04 - Pestilence.wav

Peak level 99.9 %
Track quality 100.0 %
Copy CRC 3244A02B
Accurately ripped (confidence 3) [0F7E2CDB]
Copy OK

Track 5

Filename F:\[-Ripped CDs-]\Himsa - Hail Horror - 05 - Wither.wav

Peak level 99.9 %
Track quality 100.0 %
Copy CRC 969AFCF4
Accurately ripped (confidence 3) [9B51BFA2]
Copy OK

Track 6

Filename F:\[-Ripped CDs-]\Himsa - Hail Horror - 06 - Wolfchild.wav

Pre-gap length 0:00:00.08

Peak level 99.9 %
Track quality 100.0 %
Copy CRC 3E4F82D3
Accurately ripped (confidence 3) [88E2F408]
Copy OK

Track 7

Filename F:\[-Ripped CDs-]\Himsa - Hail Horror - 07 - Seminal.wav

Peak level 99.9 %
Track quality 100.0 %
Copy CRC C173E8DE
Accurately ripped (confidence 3) [70CE3871]
Copy OK

Track 8

Filename F:\[-Ripped CDs-]\Himsa - Hail Horror - 08 - They Speak In Swarms.wav

Peak level 99.9 %
Track quality 100.0 %
Copy CRC 55202F2F
Accurately ripped (confidence 3) [3206B0EF]
Copy OK

Track 9

Filename F:\[-Ripped CDs-]\Himsa - Hail Horror - 09 - Calling In Silent.wav

Peak level 99.9 %
Track quality 100.0 %
Copy CRC 4CCB28F1
Accurately ripped (confidence 3) [3544FC30]
Copy OK

Track 10

Filename F:\[-Ripped CDs-]\Himsa - Hail Horror - 10 - Send Down Your Reign.wav

Peak level 99.9 %
Track quality 100.0 %
Copy CRC BAD022AA
Accurately ripped (confidence 3) [BB0501E9]
Copy OK


All tracks accurately ripped

No errors occurred

End of status report

[Для просмотра данной ссылки нужно зарегистрироваться]
Наконец залилось... обожаю их, в частности этот альбом.
xRaiderx вне форума  
Ответить с цитированием
Эти 6 пользователя(ей) сказали Спасибо xRaiderx за это полезное сообщение:
ACHERON (24.04.2009), niuniu (26.04.2009), Qwenn (22.04.2009), Tjodmar (23.04.2009), toshi (25.04.2009), Wanish666 (22.04.2009)
Старый 24.04.2009, 08:30   #3
Дружище
 
Аватар для xRaiderx
 
Регистрация: 03.10.2007
Адрес: Дзержинск
Пол: M
Сообщений: 719
Поблагодарил: 528
Поблагодарили 1,766 раз в 549 сообщениях
Открыли хайд :
0 в этом сообщении
373 Всего


По умолчанию

Альбом: Courting Tragedy And Disaster
Дата выпуска: 2003
Жанр: Metal
Формат: FLAC (tracks)
Битрейт: 1010-1049 kbps
Продолжительность: 00:43:35

Треклист:
01. Dominion [00:03:16]
02. Rain To The Sound Of Panic [00:03:57]
03. A Girl In Glass [00:04:55]
04. Kiss Or Kill [00:04:17]
05. Jacob Shock [00:03:17]
06. Cherum [00:04:16]
07. It's Nights Like This That Keep Us Alive [00:03:06]
08. Loveless And Goodbye [00:04:45]
09. Scars In The Landscape [00:03:37]
10. Sense Of Passings [00:04:07]
11. When Midnight Breaks [00:03:58]

Отчёт EAC:

Exact Audio Copy V0.99 prebeta 4 from 23. January 2008

EAC extraction logfile from 10. March 2009, 15:16

Himsa / Courting Tragedy And Disaster

Used drive : Memorex DVD+-RAM 510L v1 Adapter: 2 ID: 0

Read mode : Secure
Utilize accurate stream : Yes
Defeat audio cache : Yes
Make use of C2 pointers : No

Read offset correction : 6
Overread into Lead-In and Lead-Out : No
Fill up missing offset samples with silence : Yes
Delete leading and trailing silent blocks : No
Null samples used in CRC calculations : Yes
Used interface : Native Win32 interface for Win NT & 2000
Gap handling : Appended to previous track

Used output format : User Defined Encoder
Selected bitrate : 320 kBit/s
Quality : High
Add ID3 tag : No
Command line compressor : C:\Program Files\Exact Audio Copy\Flac\flac.exe
Additional command line options : -V -8 -T "artist=%a" -T "title=%t" -T "album=%g" -T "date=%y" -T "tracknumber=%n" -T "genre=%m" %s


TOC of the extracted CD

Track | Start | Length | Start sector | End sector
---------------------------------------------------------
1 | 0:00.00 | 3:16.42 | 0 | 14741
2 | 3:16.42 | 3:57.10 | 14742 | 32526
3 | 7:13.52 | 4:55.47 | 32527 | 54698
4 | 12:09.24 | 4:17.02 | 54699 | 73975
5 | 16:26.26 | 3:17.14 | 73976 | 88764
6 | 19:43.40 | 4:16.65 | 88765 | 108029
7 | 24:00.30 | 3:06.02 | 108030 | 121981
8 | 27:06.32 | 4:45.65 | 121982 | 143421
9 | 31:52.22 | 3:37.53 | 143422 | 159749
10 | 35:30.00 | 4:07.30 | 159750 | 178304
11 | 39:37.30 | 3:58.05 | 178305 | 196159


Track 1

Filename C:\Waffles\Himsa - Courting Tragedy And Disaster\Himsa - Courting Tragedy And Disaster - 01 - Dominion.wav

Pre-gap length 0:00:02.00

Peak level 98.3 %
Track quality 99.9 %
Test CRC 168476B8
Copy CRC 168476B8
Accurately ripped (confidence 15) [01515C9E]
Copy OK

Track 2

Filename C:\Waffles\Himsa - Courting Tragedy And Disaster\Himsa - Courting Tragedy And Disaster - 02 - Rain To The Sound Of Panic.wav

Pre-gap length 0:00:00.09

Peak level 98.3 %
Track quality 100.0 %
Test CRC C9AB80EA
Copy CRC C9AB80EA
Accurately ripped (confidence 14) [A10B08D0]
Copy OK

Track 3

Filename C:\Waffles\Himsa - Courting Tragedy And Disaster\Himsa - Courting Tragedy And Disaster - 03 - A Girl In Glass.wav

Pre-gap length 0:00:01.05

Peak level 98.3 %
Track quality 100.0 %
Test CRC 5FAB5114
Copy CRC 5FAB5114
Accurately ripped (confidence 15) [AD6ECC35]
Copy OK

Track 4

Filename C:\Waffles\Himsa - Courting Tragedy And Disaster\Himsa - Courting Tragedy And Disaster - 04 - Kiss Or Kill.wav

Peak level 93.8 %
Track quality 99.9 %
Test CRC F295EBFC
Copy CRC F295EBFC
Accurately ripped (confidence 15) [E76EF177]
Copy OK

Track 5

Filename C:\Waffles\Himsa - Courting Tragedy And Disaster\Himsa - Courting Tragedy And Disaster - 05 - Jacob Shock.wav

Peak level 93.8 %
Track quality 100.0 %
Test CRC 3FDC8A00
Copy CRC 3FDC8A00
Accurately ripped (confidence 15) [F596AF95]
Copy OK

Track 6

Filename C:\Waffles\Himsa - Courting Tragedy And Disaster\Himsa - Courting Tragedy And Disaster - 06 - Cherum.wav

Pre-gap length 0:00:00.69

Peak level 98.3 %
Track quality 100.0 %
Test CRC B2511D25
Copy CRC B2511D25
Accurately ripped (confidence 15) [920175F7]
Copy OK

Track 7

Filename C:\Waffles\Himsa - Courting Tragedy And Disaster\Himsa - Courting Tragedy And Disaster - 07 - It's Nights Like This That Keep Us Alive.wav

Pre-gap length 0:00:00.69

Peak level 96.0 %
Track quality 100.0 %
Test CRC 1865A172
Copy CRC 1865A172
Accurately ripped (confidence 15) [A9E8E169]
Copy OK

Track 8

Filename C:\Waffles\Himsa - Courting Tragedy And Disaster\Himsa - Courting Tragedy And Disaster - 08 - Loveless And Goodbye.wav

Pre-gap length 0:00:39.59

Peak level 96.0 %
Track quality 100.0 %
Test CRC 7AC47C60
Copy CRC 7AC47C60
Accurately ripped (confidence 15) [6DA46349]
Copy OK

Track 9

Filename C:\Waffles\Himsa - Courting Tragedy And Disaster\Himsa - Courting Tragedy And Disaster - 09 - Scars In The Landscape.wav

Pre-gap length 0:00:04.28

Peak level 96.0 %
Track quality 100.0 %
Test CRC C463006B
Copy CRC C463006B
Accurately ripped (confidence 14) [5C115D8A]
Copy OK

Track 10

Filename C:\Waffles\Himsa - Courting Tragedy And Disaster\Himsa - Courting Tragedy And Disaster - 10 - Sense Of Passings.wav

Peak level 93.8 %
Track quality 99.9 %
Test CRC C78B3BFE
Copy CRC C78B3BFE
Accurately ripped (confidence 15) [AD65A6CA]
Copy OK

Track 11

Filename C:\Waffles\Himsa - Courting Tragedy And Disaster\Himsa - Courting Tragedy And Disaster - 11 - When Midnight Breaks.wav

Pre-gap length 0:00:03.46

Peak level 96.0 %
Track quality 99.9 %
Test CRC 26B65D6E
Copy CRC 26B65D6E
Accurately ripped (confidence 15) [EE27B128]
Copy OK


All tracks accurately ripped

No errors occurred

End of status report


Очки лога: 100 (out of 100) All tracks accurately ripped
Источник:

[Для просмотра данной ссылки нужно зарегистрироваться]
xRaiderx вне форума  
Ответить с цитированием
Эти 5 пользователя(ей) сказали Спасибо xRaiderx за это полезное сообщение:
ACHERON (24.04.2009), niuniu (25.04.2009), Qwenn (24.04.2009), toshi (25.04.2009), Wanish666 (24.04.2009)
Старый 24.04.2009, 16:45   #4
Дружище
 
Аватар для xRaiderx
 
Регистрация: 03.10.2007
Адрес: Дзержинск
Пол: M
Сообщений: 719
Поблагодарил: 528
Поблагодарили 1,766 раз в 549 сообщениях
Открыли хайд :
0 в этом сообщении
373 Всего


По умолчанию

Альбом: Himsa
Дата выпуска: 1999
Жанр: Metal
Формат: FLAC (tracks)
Битрейт: 973-1038 kbps
Продолжительность: 00:10:37

Треклист:
01. Blackout [00:03:40]
02. Flood in the Market [00:03:24]
03. Sink-In [00:03:32]

Очки лога: 100 (out of 100)
Источник:

[Для просмотра данной ссылки нужно зарегистрироваться]
xRaiderx вне форума  
Ответить с цитированием
Эти 4 пользователя(ей) сказали Спасибо xRaiderx за это полезное сообщение:
niuniu (25.04.2009), Qwenn (25.04.2009), toshi (25.04.2009), Wanish666 (24.04.2009)
Ответ


Здесь присутствуют: 1 (пользователей: 0 , гостей: 1)
 
Опции темы
Опции просмотра

Ваши права в разделе
Вы не можете создавать новые темы
Вы не можете отвечать в темах
Вы не можете прикреплять вложения
Вы не можете редактировать свои сообщения

BB коды Вкл.
Смайлы Вкл.
[IMG] код Вкл.
HTML код Выкл.
Trackbacks are Выкл.
Pingbacks are Выкл.
Refbacks are Выкл.


Часовой пояс GMT +3, время: 07:10.