Вернуться   Нижегородский Форум Друзей > Обсуждаем и качаем > Музыка > Lossless > Hard Клуб > Death Metal Lossless
Забыли пароль? Регистрация



Death Metal Lossless Death Metal / Brutal Death / Technical Death / Melodic Death


Ответ
 
Опции темы Опции просмотра
Старый 19.04.2009, 03:13   #1
Дружище
 
Аватар для xRaiderx
 
Регистрация: 03.10.2007
Адрес: Дзержинск
Пол: M
Сообщений: 719
Поблагодарил: 528
Поблагодарили 1,766 раз в 549 сообщениях
Открыли хайд :
0 в этом сообщении
373 Всего


По умолчанию [Industrial Death Metal] Fear Factory

Альбом: Archetype
Дата выпуска: 2004
Жанр: Indus Metal
Формат: FLAC (tracks)
Битрейт: 678-1114 kbps
Продолжительность: 01:01:47

Треклист:
01. Slave Labor [00:03:53]
02. Cyberwaste [00:03:17]
03. Act Of God [00:05:08]
04. Drones [00:05:02]
05. Archetype [00:04:35]
06. Corporate Cloning [00:04:24]
07. Bite The Hand That Bleeds [00:04:08]
08. Undercurrent [00:04:04]
09. Default Judgement [00:05:23]
10. Bonescraper [00:04:11]
11. Human Shields [00:05:15]
12. Ascension [00:07:04]
13. School (Nirvana Cover) [00:02:38]
13. School [Nirvana Cover] [00:02:38]

Отчёт EAC:

EAC extraction logfile from 16. December 2007, 22:56 for CD
Fear Factory / Archetype

Used drive : TSSTcorpCD/DVDW SH-S162L Adapter: 0 ID: 0
Read mode : Secure with NO C2, accurate stream, disable cache
Read offset correction : 6
Overread into Lead-In and Lead-Out : No

Used output format : C:\Program Files\Exact Audio Copy\flac.exe (User Defined Encoder)
128 kBit/s
Additional command line options : -V -5 -T "artist=%a" -T "title=%t" -T "album=%g" -T "date=%y" -T "tracknumber=%n" -T "genre=%m" %s

Other options :
Fill up missing offset samples with silence : Yes
Delete leading and trailing silent blocks : No
Native Win32 interface for Win NT & 2000


Track 1
Filename C:\eac rips\Fear Factory - Archetype\01 - Fear Factory - Slave Labor.wav

Pre-gap length 0:00:02.00

Peak level 99.9 %
Track quality 100.0 %
Test CRC 6596BD6E
Copy CRC 6596BD6E
Copy OK

Track 2
Filename C:\eac rips\Fear Factory - Archetype\02 - Fear Factory - Cyberwaste.wav

Peak level 100.0 %
Track quality 100.0 %
Test CRC FFB941D7
Copy CRC FFB941D7
Copy OK

Track 3
Filename C:\eac rips\Fear Factory - Archetype\03 - Fear Factory - Act Of God.wav

Peak level 99.9 %
Track quality 100.0 %
Test CRC 72869E6A
Copy CRC 72869E6A
Copy OK

Track 4
Filename C:\eac rips\Fear Factory - Archetype\04 - Fear Factory - Drones.wav

Peak level 99.9 %
Track quality 100.0 %
Test CRC CD5B5129
Copy CRC CD5B5129
Copy OK

Track 5
Filename C:\eac rips\Fear Factory - Archetype\05 - Fear Factory - Archetype.wav

Peak level 99.9 %
Track quality 100.0 %
Test CRC 3FE6F895
Copy CRC 3FE6F895
Copy OK

Track 6
Filename C:\eac rips\Fear Factory - Archetype\06 - Fear Factory - Corporate Cloning.wav

Peak level 99.9 %
Track quality 99.9 %
Test CRC 84BF8190
Copy CRC 84BF8190
Copy OK

Track 7
Filename C:\eac rips\Fear Factory - Archetype\07 - Fear Factory - Bite The Hand That Bleeds.wav

Peak level 99.9 %
Track quality 100.0 %
Test CRC D2473745
Copy CRC D2473745
Copy OK

Track 8
Filename C:\eac rips\Fear Factory - Archetype\08 - Fear Factory - Undercurrent.wav

Peak level 99.9 %
Track quality 100.0 %
Test CRC 34405667
Copy CRC 34405667
Copy OK

Track 9
Filename C:\eac rips\Fear Factory - Archetype\09 - Fear Factory - Default Judgement.wav

Peak level 99.9 %
Track quality 100.0 %
Test CRC E0B7A5A2
Copy CRC E0B7A5A2
Copy OK

Track 10
Filename C:\eac rips\Fear Factory - Archetype\10 - Fear Factory - Bonescraper.wav

Peak level 99.9 %
Track quality 99.9 %
Test CRC 9042E59A
Copy CRC 9042E59A
Copy OK

Track 11
Filename C:\eac rips\Fear Factory - Archetype\11 - Fear Factory - Human Shields.wav

Peak level 99.9 %
Track quality 100.0 %
Test CRC A11F5BD2
Copy CRC A11F5BD2
Copy OK

Track 12
Filename C:\eac rips\Fear Factory - Archetype\12 - Fear Factory - Ascension.wav

Peak level 40.1 %
Track quality 100.0 %
Test CRC CB9BADB3
Copy CRC CB9BADB3
Copy OK

Track 13
Filename C:\eac rips\Fear Factory - Archetype\13 - Fear Factory - School (Nirvana Cover).wav

Peak level 99.9 %
Track quality 100.0 %
Test CRC 6C8D4A70
Copy CRC 6C8D4A70
Copy OK

No errors occured


End of status report

[Для просмотра данной ссылки нужно зарегистрироваться]

pass: funkys0u1s.c0m
Не спрашивайте меня почему тут два одинаковых кавера на нирвану - я не в курсе. Просто удалите второй, лишний.

Последний раз редактировалось xRaiderx; 19.04.2009 в 03:21.
xRaiderx вне форума  
Ответить с цитированием
Эти 2 пользователя(ей) сказали Спасибо xRaiderx за это полезное сообщение:
ACHERON (19.04.2009), RattleheaD (01.05.2009)
Старый 19.04.2009, 11:38   #2
Дружище
 
Аватар для xRaiderx
 
Регистрация: 03.10.2007
Адрес: Дзержинск
Пол: M
Сообщений: 719
Поблагодарил: 528
Поблагодарили 1,766 раз в 549 сообщениях
Открыли хайд :
0 в этом сообщении
373 Всего


По умолчанию

Альбом: Digimortal
Дата выпуска: 2001
Жанр: Metal
Формат: FLAC (tracks)
Битрейт: 898-1128 kbps
Продолжительность: 00:55:12

Треклист:
01. What Will Become? [00:03:23]
02. Damaged [00:03:02]
03. Digimortal [00:03:02]
04. No One [00:03:36]
05. Linchpin [00:03:25]
06. Invisible Wounds (Dark Bodies) [00:03:54]
07. Acres of Skin [00:03:55]
08. Back the Fuck Up [00:03:09]
09. Byte Block [00:05:20]
10. Hurt Conveyor [00:03:40]
11. (Memory Imprints) Never End [00:06:50]
12. Dead Man Walking [00:03:16]
13. Strain Vs. Resistance [00:03:25]
14. Repentance [00:02:40]
15. Full Metal Contact [00:02:28]

Отчёт EAC:

Exact Audio Copy V0.99 prebeta 3 from 28. July 2007

EAC extraction logfile from 26. November 2007, 18:01

Fear Factory / Digimortal

Used drive : SAMSUNG CDRW/DVD SN-324F Adapter: 1 ID: 0

Read mode : Secure
Utilize accurate stream : Yes
Defeat audio cache : Yes
Make use of C2 pointers : No

Read offset correction : 6
Overread into Lead-In and Lead-Out : No
Fill up missing offset samples with silence : Yes
Delete leading and trailing silent blocks : No
Null samples used in CRC calculations : Yes
Used interface : Installed external ASPI interface
Gap handling : Appended to previous track

Used output format : User Defined Encoder
Selected bitrate : 128 kBit/s
Quality : High
Add ID3 tag : No
Command line compressor : C:\FLAC\flac.exe
Additional command line options : -8 -A tukey(0.25) -A gauss(0.1875) -b 4096 -V -T "Artist=%a" -T "Title=%t" -T "Album=%g" -T "Date=%y" -T "Tracknumber=%n" -T "Genre=%m" %s --sector-align


TOC of the extracted CD

Track | Start | Length | Start sector | End sector
---------------------------------------------------------
1 | 0:00.00 | 3:23.62 | 0 | 15286
2 | 3:23.62 | 3:02.30 | 15287 | 28966
3 | 6:26.17 | 3:02.48 | 28967 | 42664
4 | 9:28.65 | 3:36.72 | 42665 | 58936
5 | 13:05.62 | 3:25.00 | 58937 | 74311
6 | 16:30.62 | 3:54.48 | 74312 | 91909
7 | 20:25.35 | 3:55.40 | 91910 | 109574
8 | 24:21.00 | 3:09.05 | 109575 | 123754
9 | 27:30.05 | 5:20.40 | 123755 | 147794
10 | 32:50.45 | 3:40.52 | 147795 | 164346
11 | 36:31.22 | 6:50.03 | 164347 | 195099
12 | 43:21.25 | 3:16.60 | 195100 | 209859
13 | 46:38.10 | 3:25.17 | 209860 | 225251
14 | 50:03.27 | 2:40.33 | 225252 | 237284
15 | 52:43.60 | 2:28.35 | 237285 | 248419


Track 1

Filename C:\Stuff\EAC\Fear Factory - Digimortal (FLAC)\01 What Will Become .wav

Pre-gap length 0:00:02.00

Peak level 100.0 %
Track quality 100.0 %
Test CRC 5FDF311F
Copy CRC 5FDF311F
Copy OK

Track 2

Filename C:\Stuff\EAC\Fear Factory - Digimortal (FLAC)\02 Damaged.wav

Peak level 100.0 %
Track quality 100.0 %
Test CRC B1E14818
Copy CRC B1E14818
Copy OK

Track 3

Filename C:\Stuff\EAC\Fear Factory - Digimortal (FLAC)\03 Digimortal.wav

Peak level 100.0 %
Track quality 99.9 %
Test CRC EC0AE8FE
Copy CRC EC0AE8FE
Copy OK

Track 4

Filename C:\Stuff\EAC\Fear Factory - Digimortal (FLAC)\04 No One.wav

Peak level 100.0 %
Track quality 100.0 %
Test CRC B03D25F5
Copy CRC B03D25F5
Copy OK

Track 5

Filename C:\Stuff\EAC\Fear Factory - Digimortal (FLAC)\05 Linchpin.wav

Pre-gap length 0:00:01.20

Peak level 100.0 %
Track quality 100.0 %
Test CRC CA652956
Copy CRC CA652956
Copy OK

Track 6

Filename C:\Stuff\EAC\Fear Factory - Digimortal (FLAC)\06 Invisible Wounds (Dark Bodies).wav

Peak level 100.0 %
Track quality 100.0 %
Test CRC 0C574E05
Copy CRC 0C574E05
Copy OK

Track 7

Filename C:\Stuff\EAC\Fear Factory - Digimortal (FLAC)\07 Acres of Skin.wav

Peak level 100.0 %
Track quality 100.0 %
Test CRC 8E0B462A
Copy CRC 8E0B462A
Copy OK

Track 8

Filename C:\Stuff\EAC\Fear Factory - Digimortal (FLAC)\08 Back the Fuck Up.wav

Peak level 100.0 %
Track quality 100.0 %
Test CRC DC6BF96C
Copy CRC DC6BF96C
Copy OK

Track 9

Filename C:\Stuff\EAC\Fear Factory - Digimortal (FLAC)\09 Byte Block.wav

Peak level 100.0 %
Track quality 100.0 %
Test CRC A646DA67
Copy CRC A646DA67
Copy OK

Track 10

Filename C:\Stuff\EAC\Fear Factory - Digimortal (FLAC)\10 Hurt Conveyor.wav

Peak level 100.0 %
Track quality 100.0 %
Test CRC FAE2EAC3
Copy CRC FAE2EAC3
Copy OK

Track 11

Filename C:\Stuff\EAC\Fear Factory - Digimortal (FLAC)\11 (Memory Imprints) Never End.wav

Peak level 100.0 %
Track quality 100.0 %
Test CRC B7467305
Copy CRC B7467305
Copy OK

Track 12

Filename C:\Stuff\EAC\Fear Factory - Digimortal (FLAC)\12 Dead Man Walking.wav

Pre-gap length 0:00:02.10

Peak level 100.0 %
Track quality 100.0 %
Test CRC 4723CAC3
Copy CRC 4723CAC3
Copy OK

Track 13

Filename C:\Stuff\EAC\Fear Factory - Digimortal (FLAC)\13 Strain Vs. Resistance.wav

Peak level 100.0 %
Track quality 99.9 %
Test CRC 9091059F
Copy CRC 9091059F
Copy OK

Track 14

Filename C:\Stuff\EAC\Fear Factory - Digimortal (FLAC)\14 Repentance.wav

Peak level 100.0 %
Track quality 100.0 %
Test CRC 304C2119
Copy CRC 304C2119
Copy OK

Track 15

Filename C:\Stuff\EAC\Fear Factory - Digimortal (FLAC)\15 Full Metal Contact.wav

Peak level 100.0 %
Track quality 100.0 %
Test CRC D8EB44B6
Copy CRC D8EB44B6
Copy OK

No errors occurred

End of status report

[Для просмотра данной ссылки нужно зарегистрироваться]

Pass: funkys0u1s.c0m
xRaiderx вне форума  
Ответить с цитированием
Ответ


Здесь присутствуют: 1 (пользователей: 0 , гостей: 1)
 
Опции темы
Опции просмотра

Ваши права в разделе
Вы не можете создавать новые темы
Вы не можете отвечать в темах
Вы не можете прикреплять вложения
Вы не можете редактировать свои сообщения

BB коды Вкл.
Смайлы Вкл.
[IMG] код Вкл.
HTML код Выкл.
Trackbacks are Выкл.
Pingbacks are Выкл.
Refbacks are Выкл.


Часовой пояс GMT +3, время: 00:42.