Вернуться   Нижегородский Форум Друзей > Обсуждаем и качаем > Музыка > Lossless > Hard Клуб > Death Metal Lossless
Забыли пароль? Регистрация



Death Metal Lossless Death Metal / Brutal Death / Technical Death / Melodic Death


Ответ
 
Опции темы Опции просмотра
Старый 22.04.2009, 14:13   #1
Продюсер
 
Аватар для Maniac
 
Регистрация: 19.09.2007
Пол: M
Провайдер: Dial-up
Сообщений: 3,323
Поблагодарил: 1,757
Поблагодарили 4,783 раз в 1,407 сообщениях
Открыли хайд :
6 в этом сообщении
5,329 Всего


По умолчанию [Sataniс Death Metal] Acheron

Acheron - Lex Talionis/Satanic Victory



Year: 1999
Style: Death Metal
Country: US
Audio: Flac+Cue+Log
Size: 480 mb +3%
Label: Blackend Black006CD

В каждом архиве инфа для восстановления!
Обложки в комплекте.


Tracklist:
1 Intro 1:04
2 Legions of Hatred 5:40
3 Intro 1:24
4 Enter Thy Coven 3:17
5 Intro 0:34
6 Slaughterization for Satan 4:35
7 Intro 0:47
8 Voices Within 3:44
9 Intro 1:01
10 Purification Day 5:33
11 Intro 0:45
12 Inner Beasts 4:07
13 Intro 1:03
14 The Entity 3:39
15 Intro 1:14
16 I.N.R.I. (False Prophet) 5:01
17 Outro: Lex Talionis March 1:58
Satanic Victory e.p.
18 Unholy Praises 3:48
19 Seven Deadly Sins 3:31
20 Satanic Erotica 3:23
21 Prayer of Hell 2:41
22 666 3:32
23 God Is Dead 3:19
===============
Total playing time: 1:05:42

Отчёт EAC:
EAC extraction logfile from 18. April 2009, 8:37 for CD
Acheron / Lex Talionis-Satanic Victory

Used drive : LITE-ON DVDRW LH-20A1H Adapter: 0 ID: 0
Read mode : Secure with NO C2, accurate stream, disable cache
Read offset correction : 6
Overread into Lead-In and Lead-Out : No

Used output format : Internal WAV Routines
44.100 Hz; 16 Bit; Stereo

Other options :
Fill up missing offset samples with silence : Yes
Delete leading and trailing silent blocks : No
Native Win32 interface for Win NT & 2000


Range status and errors
Selected range
Filename C:bloguploadAcheron - Lex Talionis-Satanic VictoryAcheron - Lex Talionis-Satanic Victory.wav

Peak level 100.0 %
Range quality 100.0 %
CRC 7935BF32
Copy OK

No errors occured

End of status report


share.nnov (5 частей)
Чтобы увидеть скрытый текст Вам нужно нажать кнопочку "Открыть Hide"
У вас нет прав чтобы видеть скрытый текст, содержащийся здесь.


Большое спасибо хорошему человеку heavybrother, за загрузку альбома с внешки.
__________________
Maniac вне форума  
Ответить с цитированием
Эти 4 пользователя(ей) сказали Спасибо Maniac за это полезное сообщение:
ACHERON (23.04.2009), dying_inside (22.04.2009), Qwenn (24.04.2009), SuffoCore (25.07.2009)
Хайд открыли:
AGGEL-000666 (07.10.2011), death.chem (01.09.2009), SuffoCore (25.07.2009), Qwenn (24.04.2009), ACHERON (23.04.2009), dying_inside (22.04.2009)
Старый 24.07.2009, 00:20   #2
Продюсер
 
Аватар для Maniac
 
Регистрация: 19.09.2007
Пол: M
Провайдер: Dial-up
Сообщений: 3,323
Поблагодарил: 1,757
Поблагодарили 4,783 раз в 1,407 сообщениях
Открыли хайд :
8 в этом сообщении
5,329 Всего


По умолчанию

Acheron - The Final Conflict: Last Days Of God



Year: 2009 (лось с фирмы)
Country: United States of America
Style: Death Metal
Audio: Flac+Cue+Log
Size: 369.8 Mb (Ковры в архиве)

Tracklist:
01. Intro / The Apocalypse (06:47)
02. Rise Of Rebellion (05:44)
03. Blood Oath (Pactum Tacitum) (05:29)
04. I Am Heathen (04:13)
05. Godless (We Are Gods!) (04:58)
06. Salvation Through Hatred (04:40)
07. Power And Might (06:06)
08. Millennium's End (04:41)
09. A New Age (05:46)
10. Anno Armegeddon (02:45)
=======================
Total playing time: 51:20

Отчёт EAC:
Exact Audio Copy V0.99 prebeta 4 from 23. January 2008

Отчёт EAC об извлечении, выполненном 20. июля 2009, 23:23

Acheron / The Final Conflict: Last Days of God

Дисковод: ASUS DVD-E616P2 Adapter: 1 ID: 1

Режим чтения : Достоверность
Использование точного потока : Да
Отключение кэша аудио : Да
Использование указателей C2 : Нет

Коррекция смещения при чтении : 48
Способность читать области Lead-in и Lead-out : Нет
Заполнение пропущенных сэмплов тишиной : Да
Удаление блоков с тишиной в начале и конце : Нет
При вычислениях CRC использовались нулевые сэмплы : Да
Интерфейс : Встроенный Win32-интерфейс для Win NT/2000

Выходной формат : Пользовательский кодировщик
Выбранный битрейт : 1024 kBit/s
Качество : Высокий
Добавление ID3-тэга : Да
Утилита сжатия : C:\Program Files\ExactAudioCopy\Flac\flac.exe
Дополнительные параметры : -8 -V -T "ARTIST=%a" -T "TITLE=%t" -T "ALBUM=%g" -T "DATE=%y" -T "TRACKNUMBER=%n" -T "GENRE=%m" -T "COMMENT=EAC FLAC -8" %s


TOC извлечённого CD

Трек | Старт | Длительность | Начальный сектор | Конечный сектор
---------------------------------------------------------------------
1 | 0:00.00 | 6:47.57 | 0 | 30581
2 | 6:47.57 | 5:45.08 | 30582 | 56464
3 | 12:32.65 | 5:29.65 | 56465 | 81204
4 | 18:02.55 | 4:13.74 | 81205 | 100253
5 | 22:16.54 | 4:58.47 | 100254 | 122650
6 | 27:15.26 | 4:41.15 | 122651 | 143740
7 | 31:56.41 | 6:07.15 | 143741 | 171280
8 | 38:03.56 | 4:41.71 | 171281 | 192426
9 | 42:45.52 | 5:47.20 | 192427 | 218471
10 | 48:32.72 | 2:45.36 | 218472 | 230882


Характеристики диапазона извлечения и сообщения об ошибках

Выбранный диапазон

Имя файла D:\Acheron - The Final Conflict: Last Days of God.wav

Пиковый уровень 99.2 %
Качество диапазона 100.0 %
CRC копии B8B63F43
Копирование... OK

Ошибок не произошло

Конец отчёта

share.nnov
Чтобы увидеть скрытый текст Вам нужно нажать кнопочку "Открыть Hide"
У вас нет прав чтобы видеть скрытый текст, содержащийся здесь.
__________________
Maniac вне форума  
Ответить с цитированием
Эти 5 пользователя(ей) сказали Спасибо Maniac за это полезное сообщение:
ACHERON (25.07.2009), dying_inside (24.07.2009), ILLUMINATY (08.08.2009), Nephilim (24.07.2009), SuffoCore (25.07.2009)
Хайд открыли:
AGGEL-000666 (07.10.2011), death.chem (01.09.2009), ILLUMINATY (07.08.2009), DreadMashine (26.07.2009), SuffoCore (25.07.2009), ACHERON (25.07.2009), dying_inside (24.07.2009), Nephilim (24.07.2009)
Ответ


Здесь присутствуют: 1 (пользователей: 0 , гостей: 1)
 
Опции темы
Опции просмотра

Ваши права в разделе
Вы не можете создавать новые темы
Вы не можете отвечать в темах
Вы не можете прикреплять вложения
Вы не можете редактировать свои сообщения

BB коды Вкл.
Смайлы Вкл.
[IMG] код Вкл.
HTML код Выкл.
Trackbacks are Выкл.
Pingbacks are Выкл.
Refbacks are Выкл.


Часовой пояс GMT +3, время: 14:19.