Вернуться   Нижегородский Форум Друзей > Обсуждаем и качаем > Музыка > Lossless > Hard Клуб > Death Metal Lossless
Забыли пароль? Регистрация



Death Metal Lossless Death Metal / Brutal Death / Technical Death / Melodic Death
Описание темы:now Conducting From the Grave


Ответ
 
Опции темы Опции просмотра
Старый 25.04.2009, 21:59   #1
Дружище
 
Аватар для xRaiderx
 
Регистрация: 03.10.2007
Адрес: Дзержинск
Пол: M
Сообщений: 719
Поблагодарил: 528
Поблагодарили 1,766 раз в 549 сообщениях
Открыли хайд :
0 в этом сообщении
373 Всего


По умолчанию [Death Metal / Progressive / Technical] With Passion

Альбом: In The Midst Of Bloodied Soil
Дата выпуска: 2005
Жанр: Deathcore/Melodic Death
Формат: FLAC (tracks)
Битрейт: 577-1131 kbps
Продолжительность: 00:33:07

Треклист:
01. Train Wreck Orchestra [00:05:53]
02. The Last Scripture [00:05:33]
03. The Scorpions Dance [00:02:37]
04. Darkness Doth Bring Mortality [00:04:18]
05. Forlorn Hope [00:04:27]
06. The Prophecies Of Hellfire [00:02:02]
07. A Coniferous War [00:04:11]
08. A Theory Of An Evening Sky [00:04:03]

Отчёт EAC:

Exact Audio Copy V0.99 prebeta 4 from 23. January 2008

EAC extraction logfile from 30. September 2008, 23:18

With Passion / In The Midst Of Bloodied Soil

Used drive : HP DVD Writer 1070r Adapter: 0 ID: 1

Read mode : Secure
Utilize accurate stream : Yes
Defeat audio cache : No
Make use of C2 pointers : Yes

Read offset correction : 6
Overread into Lead-In and Lead-Out : No
Fill up missing offset samples with silence : Yes
Delete leading and trailing silent blocks : No
Null samples used in CRC calculations : No
Used interface : Installed external ASPI interface
Gap handling : Appended to previous track

Used output format : Internal WAV Routines
Sample format : 44.100 Hz; 16 Bit; Stereo


TOC of the extracted CD

Track | Start | Length | Start sector | End sector
---------------------------------------------------------
1 | 0:00.00 | 5:53.10 | 0 | 26484
2 | 5:53.10 | 5:33.32 | 26485 | 51491
3 | 11:26.42 | 2:37.71 | 51492 | 63337
4 | 14:04.38 | 4:18.01 | 63338 | 82688
5 | 18:22.39 | 4:27.09 | 82689 | 102722
6 | 22:49.48 | 2:02.74 | 102723 | 111946
7 | 24:52.47 | 4:11.50 | 111947 | 130821
8 | 29:04.22 | 4:03.35 | 130822 | 149081


Track 1

Filename C:\Documents and Settings\Rob\Desktop\EAC Files\With Passion - In The Midst Of Bloodied Soil - 01 - Train Wreck Orchestra.wav

Pre-gap length 0:00:02.00

Peak level 99.5 %
Track quality 100.0 %
Test CRC 0BCB30A8
Copy CRC 0BCB30A8
Accurately ripped (confidence 1) [253D69EF]
Copy OK

Track 2

Filename C:\Documents and Settings\Rob\Desktop\EAC Files\With Passion - In The Midst Of Bloodied Soil - 02 - The Last Scripture.wav

Pre-gap length 0:00:01.49

Peak level 99.5 %
Track quality 100.0 %
Test CRC 77F286FB
Copy CRC 77F286FB
Accurately ripped (confidence 1) [D493A644]
Copy OK

Track 3

Filename C:\Documents and Settings\Rob\Desktop\EAC Files\With Passion - In The Midst Of Bloodied Soil - 03 - The Scorpions Dance.wav

Pre-gap length 0:00:01.70

Peak level 91.3 %
Track quality 100.0 %
Test CRC B939013C
Copy CRC B939013C
Accurately ripped (confidence 1) [6A234E25]
Copy OK

Track 4

Filename C:\Documents and Settings\Rob\Desktop\EAC Files\With Passion - In The Midst Of Bloodied Soil - 04 - Darkness Doth Bring Mortality.wav

Pre-gap length 0:00:02.20

Peak level 99.5 %
Track quality 100.0 %
Test CRC FFB6347A
Copy CRC FFB6347A
Accurately ripped (confidence 1) [E1978445]
Copy OK

Track 5

Filename C:\Documents and Settings\Rob\Desktop\EAC Files\With Passion - In The Midst Of Bloodied Soil - 05 - Forlorn Hope.wav

Pre-gap length 0:00:01.49

Peak level 99.5 %
Track quality 99.9 %
Test CRC 1963A578
Copy CRC 1963A578
Accurately ripped (confidence 1) [5B974CA7]
Copy OK

Track 6

Filename C:\Documents and Settings\Rob\Desktop\EAC Files\With Passion - In The Midst Of Bloodied Soil - 06 - The Prophecies Of Hellfire.wav

Pre-gap length 0:00:02.06

Peak level 97.7 %
Track quality 100.0 %
Test CRC 573AAFCB
Copy CRC 573AAFCB
Accurately ripped (confidence 1) [E1606AD5]
Copy OK

Track 7

Filename C:\Documents and Settings\Rob\Desktop\EAC Files\With Passion - In The Midst Of Bloodied Soil - 07 - A Coniferous War.wav

Pre-gap length 0:00:02.23

Peak level 99.5 %
Track quality 100.0 %
Test CRC ACCD0616
Copy CRC ACCD0616
Accurately ripped (confidence 1) [B8B2DC0E]
Copy OK

Track 8

Filename C:\Documents and Settings\Rob\Desktop\EAC Files\With Passion - In The Midst Of Bloodied Soil - 08 - A Theory Of An Evening Sky.wav

Pre-gap length 0:00:02.00

Peak level 99.5 %
Track quality 100.0 %
Test CRC 74032885
Copy CRC 74032885
Accurately ripped (confidence 1) [0FFCB334]
Copy OK


All tracks accurately ripped

No errors occurred

End of status report

Source: What.CD
Score: 85 (out of 100) but All tracks accurately ripped

Details:
- 'Defeat audio cache' should be yes. -5 points
- C2 pointers were used, -10 points

[Для просмотра данной ссылки нужно зарегистрироваться]
xRaiderx вне форума  
Ответить с цитированием
Эти 4 пользователя(ей) сказали Спасибо xRaiderx за это полезное сообщение:
ACHERON (27.04.2009), RattleheaD (01.05.2009), toshi (25.04.2009), Wanish666 (26.04.2009)
Ответ


Здесь присутствуют: 1 (пользователей: 0 , гостей: 1)
 
Опции темы
Опции просмотра

Ваши права в разделе
Вы не можете создавать новые темы
Вы не можете отвечать в темах
Вы не можете прикреплять вложения
Вы не можете редактировать свои сообщения

BB коды Вкл.
Смайлы Вкл.
[IMG] код Вкл.
HTML код Выкл.
Trackbacks are Выкл.
Pingbacks are Выкл.
Refbacks are Выкл.


Часовой пояс GMT +3, время: 01:49.