Вернуться   Нижегородский Форум Друзей > Обсуждаем и качаем > Музыка > Lossless > Hard Клуб > Death Metal Lossless
Забыли пароль? Регистрация



Death Metal Lossless Death Metal / Brutal Death / Technical Death / Melodic Death


Ответ
 
Опции темы Опции просмотра
Старый 02.05.2009, 15:09   #1
Power User
 
Аватар для toshi
 
Регистрация: 23.09.2008
Адрес: Сормово
Пол: M
Провайдер: Эр-Телеком
Сообщений: 1,304
Поблагодарил: 661
Поблагодарили 2,880 раз в 1,044 сообщениях
Открыли хайд :
6 в этом сообщении
3,238 Всего


По умолчанию [Brutal Death Metal] Degrade

[Для просмотра данной ссылки нужно зарегистрироваться]

Исполнитель: Degrade
Альбом: Lost Torso Found
Дата выпуска: 2006
Жанр: Death Metal
Формат: FLAC (image+cue)
Битрейт: 1144-1181 kbps
Продолжительность: 00:31:06

Треклист:
01. Torso Extraction [00:03:30]
02. Prenatal Butchery [00:03:54]
03. Blood Rampage [00:03:39]
04. Lost Torso Found [00:03:32]
05. Bag Of Disposed Organs [00:03:25]
06. Drastical Disembowelment [00:03:23]
07. B.T.K. [00:03:23]
08. United In Brutality [00:03:58]
09. Degraded Into Worms MK2 [00:02:17]

Отчёт EAC:

Exact Audio Copy V0.99 prebeta 4 from 23. January 2008

EAC extraction logfile from 6. February 2009, 16:01

Degrade / Lost Torso Found

Used drive : Optiarc DVD RW AD-7200S Adapter: 4 ID: 0

Read mode : Secure
Utilize accurate stream : Yes
Defeat audio cache : Yes
Make use of C2 pointers : No

Read offset correction : 48
Overread into Lead-In and Lead-Out : No
Fill up missing offset samples with silence : Yes
Delete leading and trailing silent blocks : No
Null samples used in CRC calculations : Yes
Used interface : Native Win32 interface for Win NT & 2000

Used output format : User Defined Encoder
Selected bitrate : 1024 kBit/s
Quality : High
Add ID3 tag : Yes
Command line compressor : C:\Program Files\Exact Audio Copy\Flac\flac.exe
Additional command line options : -6 -V %s


TOC of the extracted CD

Track | Start | Length | Start sector | End sector
---------------------------------------------------------
1 | 0:00.00 | 3:30.16 | 0 | 15765
2 | 3:30.16 | 3:54.72 | 15766 | 33387
3 | 7:25.13 | 3:39.54 | 33388 | 49866
4 | 11:04.67 | 3:32.42 | 49867 | 65808
5 | 14:37.34 | 3:25.58 | 65809 | 81241
6 | 18:03.17 | 3:23.65 | 81242 | 96531
7 | 21:27.07 | 3:23.66 | 96532 | 111822
8 | 24:50.73 | 3:58.57 | 111823 | 129729
9 | 28:49.55 | 2:17.14 | 129730 | 140018


Range status and errors

Selected range

Filename C:\Audio - Video\Cetakan Crew\Degrade - Lost Torso Found.wav

Peak level 97.7 %
Range quality 100.0 %
Copy CRC A4AC9DC0
Copy OK

No errors occurred


AccurateRip summary

Track 1 not present in database
Track 2 not present in database
Track 3 not present in database
Track 4 not present in database
Track 5 not present in database
Track 6 not present in database
Track 7 not present in database
Track 8 not present in database
Track 9 not present in database

None of the tracks are present in the AccurateRip database

End of status report

[Для просмотра данной ссылки нужно зарегистрироваться]

share.nnov

Чтобы увидеть скрытый текст Вам нужно нажать кнопочку "Открыть Hide"
У вас нет прав чтобы видеть скрытый текст, содержащийся здесь.
__________________
Подключайтесь к ДОМ.РУ!!!:
[Для просмотра данной ссылки нужно зарегистрироваться]
т.п. "Токио"
toshi вне форума  
Ответить с цитированием
Эти 5 пользователя(ей) сказали Спасибо toshi за это полезное сообщение:
ACHERON (02.05.2009), dying_inside (02.05.2009), Qwenn (03.05.2009), SuffoCore (02.05.2009), Назгул (11.05.2009)
Хайд открыли:
distress13 (08.02.2010), Назгул (11.05.2009), Qwenn (03.05.2009), SuffoCore (02.05.2009), ACHERON (02.05.2009), dying_inside (02.05.2009)
Старый 02.05.2009, 23:00   #2
Знакомый
 
Аватар для SuffoCore
 
Регистрация: 16.04.2009
Адрес: НН, Щербинки
Пол: M
Провайдер: ВТ
Сообщений: 41
Поблагодарил: 125
Поблагодарили 33 раз в 14 сообщениях
Открыли хайд :
0 в этом сообщении
0 Всего


По умолчанию

Degrade это мегапрей просто!!!
Огромное спасибо!!!!
SuffoCore вне форума  
Ответить с цитированием
Ответ


Здесь присутствуют: 1 (пользователей: 0 , гостей: 1)
 
Опции темы
Опции просмотра

Ваши права в разделе
Вы не можете создавать новые темы
Вы не можете отвечать в темах
Вы не можете прикреплять вложения
Вы не можете редактировать свои сообщения

BB коды Вкл.
Смайлы Вкл.
[IMG] код Вкл.
HTML код Выкл.
Trackbacks are Выкл.
Pingbacks are Выкл.
Refbacks are Выкл.


Часовой пояс GMT +3, время: 13:19.