Вернуться   Нижегородский Форум Друзей > Обсуждаем и качаем > Музыка > Lossless > Hard Клуб > Death Metal Lossless
Забыли пароль? Регистрация



Death Metal Lossless Death Metal / Brutal Death / Technical Death / Melodic Death


Ответ
 
Опции темы Опции просмотра
Старый 08.05.2009, 21:33   #1
Хороший Друг
 
Регистрация: 07.03.2008
Адрес: Everywhere
Пол: М
Провайдер: Другой
Сообщений: 462
Поблагодарил: 654
Поблагодарили 861 раз в 293 сообщениях
Открыли хайд :
2 в этом сообщении
960 Всего


По умолчанию [Death / Atmospheric Metal] Septic Flesh

Septic Flesh - 2000 - Forgotten Paths (The Early Days)



Country: Greece
Genre: Death Metal
Year: 2000
Format: APE (image + .cue)
Source: [Для просмотра данной ссылки нужно зарегистрироваться]

TrackList:

01. Intro (1:07)
02. Power of the Dark (4:12)
03. Melting Brains (5:12)
04. Unholy Ritual (5:43)
05. Curse of Death (5:38)
06. Forgotten Path (7:21)
07. Outro (1:26)
08. Power of the Dark (live) (4:58)
09. Forgotten Path (live) (7:09)
10. Melting Brains (live) (3:38)

EAC Log:

Exact Audio Copy V0.99 prebeta 4 from 23. January 2008

EAC extraction logfile from 31. July 2008, 17:50

Septic Flesh / Forgotten Paths (The Early Days)

Used drive : Optiarc DVD RW AD-7191S Adapter: 2 ID: 0

Read mode : Secure
Utilize accurate stream : Yes
Defeat audio cache : Yes
Make use of C2 pointers : No

Read offset correction : 6
Overread into Lead-In and Lead-Out : No
Fill up missing offset samples with silence : Yes
Delete leading and trailing silent blocks : No
Null samples used in CRC calculations : Yes
Used interface : Native Win32 interface for Win NT & 2000

Used output format : Internal WAV Routines
Sample format : 44.100 Hz; 16 Bit; Stereo


TOC of the extracted CD

Track | Start | Length | Start sector | End sector
---------------------------------------------------------
1 | 0:00.00 | 1:07.32 | 0 | 5056
2 | 1:07.32 | 4:12.10 | 5057 | 23966
3 | 5:19.42 | 5:12.03 | 23967 | 47369
4 | 10:31.45 | 5:43.27 | 47370 | 73121
5 | 16:14.72 | 5:37.38 | 73122 | 98434
6 | 21:52.35 | 7:20.40 | 98435 | 131474
7 | 29:13.00 | 1:26.05 | 131475 | 137929
8 | 30:39.05 | 4:57.57 | 137930 | 160261
9 | 35:36.62 | 7:08.50 | 160262 | 192411
10 | 42:45.37 | 3:37.68 | 192412 | 208754


Range status and errors

Selected range

Filename E:\Musick\-- upload --\Septic Flesh - 2000 - Forgotten Paths (The Early Days)\Septic Flesh - Forgotten Paths (The Early Days).wav

Peak level 97.7 %
Range quality 99.9 %
Copy CRC 0723F36B
Copy OK

No errors occurred


AccurateRip summary

Track 1 not present in database
Track 2 not present in database
Track 3 not present in database
Track 4 not present in database
Track 5 not present in database
Track 6 not present in database
Track 7 not present in database
Track 8 not present in database
Track 9 not present in database
Track 10 not present in database

None of the tracks are present in the AccurateRip database

End of status report


FooCDtect Log:

fooCDtect - foobar2000 + auCDtect, baralgin.

auCDtect: CD records authenticity detector, version 0.8.2
Copyright (c) 2004 Oleg Berngardt. All rights reserved.
Copyright (c) 2004 Alexander Djourik. All rights reserved.

mode: 0

================================================== =====
Track: Septic Flesh - 2000 - Forgotten Paths (The Early Days) - 01 - Intro
Quality: CDDA, 100%
================================================== =====
Track: Septic Flesh - 2000 - Forgotten Paths (The Early Days) - 02 - Power of the Dark
Quality: CDDA, 99%
================================================== =====
Track: Septic Flesh - 2000 - Forgotten Paths (The Early Days) - 03 - Melting Brains
Quality: CDDA, 100%
================================================== =====
Track: Septic Flesh - 2000 - Forgotten Paths (The Early Days) - 04 - Unholy Ritual
Quality: CDDA, 100%
================================================== =====
Track: Septic Flesh - 2000 - Forgotten Paths (The Early Days) - 05 - Curse of Death
Quality: CDDA, 100%
================================================== =====
Track: Septic Flesh - 2000 - Forgotten Paths (The Early Days) - 06 - Forgotten Path
Quality: CDDA, 100%
================================================== =====
Track: Septic Flesh - 2000 - Forgotten Paths (The Early Days) - 07 - Outro
Quality: CDDA, 100%
================================================== =====
Track: Septic Flesh - 2000 - Forgotten Paths (The Early Days) - 08 - Power of the Dark (live)
Quality: CDDA, 100%
================================================== =====
Track: Septic Flesh - 2000 - Forgotten Paths (The Early Days) - 09 - Forgotten Path (live)
Quality: CDDA, 100%
================================================== =====
Track: Septic Flesh - 2000 - Forgotten Paths (The Early Days) - 10 - Melting Brains (live)
Quality: CDDA, 100%
================================================== =====


Ссылка на share.nnov.ru:

Чтобы увидеть скрытый текст Вам нужно нажать кнопочку "Открыть Hide"
У вас нет прав чтобы видеть скрытый текст, содержащийся здесь.
Avelis вне форума  
Ответить с цитированием
Этот пользователь сказал Спасибо Avelis за это полезное сообщение:
dying_inside (09.05.2009)
Хайд открыли:
DreadMashine (13.05.2009), dying_inside (09.05.2009)
Старый 08.05.2009, 21:38   #2
Хороший Друг
 
Регистрация: 07.03.2008
Адрес: Everywhere
Пол: М
Провайдер: Другой
Сообщений: 462
Поблагодарил: 654
Поблагодарили 861 раз в 293 сообщениях
Открыли хайд :
2 в этом сообщении
960 Всего


По умолчанию

Septic Flesh - 1998 - The Eldest Cosmonaut (EP)



Country: Greece
Genre: Death Metal
Year: 1998
Format: APE (image + .cue)
Source: [Для просмотра данной ссылки нужно зарегистрироваться]

TrackList:

01. The Eldest Cosmonaut (video remix) (4:24)
02. Underworld Act III (10:49)
03. Finale (3:10)
04. Woman of the Rings (remastered) (6:38)

EAC Log:

Exact Audio Copy V0.99 prebeta 4 from 23. January 2008

EAC extraction logfile from 30. July 2008, 23:31

Septic Flesh / The Eldest Cosmonaut (EP)

Used drive : Optiarc DVD RW AD-7191S Adapter: 2 ID: 0

Read mode : Secure
Utilize accurate stream : Yes
Defeat audio cache : Yes
Make use of C2 pointers : No

Read offset correction : 6
Overread into Lead-In and Lead-Out : No
Fill up missing offset samples with silence : Yes
Delete leading and trailing silent blocks : No
Null samples used in CRC calculations : Yes
Used interface : Native Win32 interface for Win NT & 2000

Used output format : Internal WAV Routines
Sample format : 44.100 Hz; 16 Bit; Stereo


TOC of the extracted CD

Track | Start | Length | Start sector | End sector
---------------------------------------------------------
1 | 0:00.32 | 4:24.05 | 32 | 19836
2 | 4:24.37 | 10:48.60 | 19837 | 68496
3 | 15:13.22 | 3:10.18 | 68497 | 82764
4 | 18:23.40 | 6:37.60 | 82765 | 112599


Range status and errors

Selected range

Filename E:\Musick\-- upload --\Septic Flesh - 1998 - The Eldest Cosmonaut (EP)\Septic Flesh - The Eldest Cosmonaut EP.wav

Peak level 99.6 %
Range quality 100.0 %
Copy CRC 535F23A8
Copy OK

No errors occurred


AccurateRip summary

Track 1 not present in database
Track 2 not present in database
Track 3 not present in database
Track 4 not present in database

None of the tracks are present in the AccurateRip database

End of status report


FooCDtect Log:

fooCDtect - foobar2000 + auCDtect, baralgin.

auCDtect: CD records authenticity detector, version 0.8.2
Copyright (c) 2004 Oleg Berngardt. All rights reserved.
Copyright (c) 2004 Alexander Djourik. All rights reserved.

mode: 0

================================================== =====
Track: Septic Flesh - 1998 - The Eldest Cosmonaut (EP) - 02 - Underworld Act III
Quality: CDDA, 100%
================================================== =====
Track: Septic Flesh - 1998 - The Eldest Cosmonaut (EP) - 01 - The Eldest Cosmonaut (video remix)
Quality: CDDA, 100%
================================================== =====
Track: Septic Flesh - 1998 - The Eldest Cosmonaut (EP) - 03 - Finale
Quality: CDDA, 100%
================================================== =====
Track: Septic Flesh - 1998 - The Eldest Cosmonaut (EP) - 04 - Woman of the Rings (remastered)
Quality: CDDA, 99%
================================================== =====


Ссылка на share.nnov.ru:

Чтобы увидеть скрытый текст Вам нужно нажать кнопочку "Открыть Hide"
У вас нет прав чтобы видеть скрытый текст, содержащийся здесь.
Avelis вне форума  
Ответить с цитированием
Этот пользователь сказал Спасибо Avelis за это полезное сообщение:
dying_inside (09.05.2009)
Хайд открыли:
peprnik (12.12.2010), dying_inside (09.05.2009)
Ответ


Здесь присутствуют: 1 (пользователей: 0 , гостей: 1)
 
Опции темы
Опции просмотра

Ваши права в разделе
Вы не можете создавать новые темы
Вы не можете отвечать в темах
Вы не можете прикреплять вложения
Вы не можете редактировать свои сообщения

BB коды Вкл.
Смайлы Вкл.
[IMG] код Вкл.
HTML код Выкл.
Trackbacks are Выкл.
Pingbacks are Выкл.
Refbacks are Выкл.


Часовой пояс GMT +3, время: 00:28.