Вернуться   Нижегородский Форум Друзей > Обсуждаем и качаем > Музыка > Lossless > Hard Клуб > Death Metal Lossless
Забыли пароль? Регистрация



Death Metal Lossless Death Metal / Brutal Death / Technical Death / Melodic Death


Ответ
 
Опции темы Опции просмотра
Старый 06.06.2009, 17:33   #1
Продюсер
 
Аватар для Maniac
 
Регистрация: 19.09.2007
Пол: M
Провайдер: Dial-up
Сообщений: 3,323
Поблагодарил: 1,757
Поблагодарили 4,783 раз в 1,407 сообщениях
Открыли хайд :
6 в этом сообщении
5,329 Всего


По умолчанию [Progressive Death Metal] Mencea

Mencea - Dark Matter - Energy Noir


Year: 2008
Style: Progressive Death Metal
Country: Greece
Format: ape (image+cue+log+scans)
Size: 307.8 Mb

Tracklist:
1. The Passing
2. Ardad
3. Forbidden
4. Deep In The Under
5. The Holy Cast
6. Eminence
7. Curse The Damned
8. When Strife And Greed Collide


Отчёт EAC:
Mencea / Dark Matter-Energy Noir

Used drive : PIONEER DVD-RW DVR-216D Adapter: 0 ID: 1

Read mode : Secure
Utilize accurate stream : Yes
Defeat audio cache : Yes
Make use of C2 pointers : No

Read offset correction : 96
Overread into Lead-In and Lead-Out : No
Fill up missing offset samples with silence : Yes
Delete leading and trailing silent blocks : No
Null samples used in CRC calculations : No
Used interface : Installed external ASPI interface

Used output format : Monkey's Audio Lossless Encoder
Selected bitrate : High Lossless Compression
Quality : High
Add ID3 tag : Yes
Command line compressor : C:\Program Files\Exact Audio Copy\MAC.EXE


TOC of the extracted CD

Track | Start | Length | Start sector | End sector
---------------------------------------------------------
1 | 0:00.00 | 5:42.06 | 0 | 25655
2 | 5:42.06 | 3:33.58 | 25656 | 41688
3 | 9:15.64 | 4:32.71 | 41689 | 62159
4 | 13:48.60 | 4:28.43 | 62160 | 82302
5 | 18:17.28 | 4:47.62 | 82303 | 103889
6 | 23:05.15 | 4:25.10 | 103890 | 123774
7 | 27:30.25 | 4:26.74 | 123775 | 143798
8 | 31:57.24 | 9:02.05 | 143799 | 184453


Range status and errors

Selected range

Filename G:\MY_MUSIC\EAC_IMAGE\Mencea - Dark Matter-Energy Noir.wav

Peak level 100.0 %
Range quality 99.9 %
Copy CRC F7C02B6A
Copy OK

No errors occurred

End of status report


share.nnov
Чтобы увидеть скрытый текст Вам нужно нажать кнопочку "Открыть Hide"
У вас нет прав чтобы видеть скрытый текст, содержащийся здесь.
Maniac вне форума  
Ответить с цитированием
Эти 5 пользователя(ей) сказали Спасибо Maniac за это полезное сообщение:
ACHERON (07.06.2009), Avelis (06.06.2009), CruelDog (06.06.2009), dying_inside (06.06.2009), mezzo (08.06.2009)
Хайд открыли:
DreadMashine (09.06.2009), mezzo (08.06.2009), ACHERON (07.06.2009), CruelDog (06.06.2009), dying_inside (06.06.2009), Avelis (06.06.2009)
Старый 06.06.2009, 17:35   #2
Продюсер
 
Аватар для Maniac
 
Регистрация: 19.09.2007
Пол: M
Провайдер: Dial-up
Сообщений: 3,323
Поблагодарил: 1,757
Поблагодарили 4,783 раз в 1,407 сообщениях
Открыли хайд :
0 в этом сообщении
5,329 Всего


По умолчанию

Рип с фирмы от MeTaLMaDNess
Maniac вне форума  
Ответить с цитированием
Ответ


Здесь присутствуют: 1 (пользователей: 0 , гостей: 1)
 
Опции темы
Опции просмотра

Ваши права в разделе
Вы не можете создавать новые темы
Вы не можете отвечать в темах
Вы не можете прикреплять вложения
Вы не можете редактировать свои сообщения

BB коды Вкл.
Смайлы Вкл.
[IMG] код Вкл.
HTML код Выкл.
Trackbacks are Выкл.
Pingbacks are Выкл.
Refbacks are Выкл.


Часовой пояс GMT +3, время: 08:26.