Вернуться   Нижегородский Форум Друзей > Обсуждаем и качаем > Музыка > Lossless > Hard Клуб > Death Metal Lossless
Забыли пароль? Регистрация



Death Metal Lossless Death Metal / Brutal Death / Technical Death / Melodic Death


Ответ
 
Опции темы Опции просмотра
Старый 09.06.2009, 14:13   #1
Продюсер
 
Аватар для Maniac
 
Регистрация: 19.09.2007
Пол: M
Провайдер: Dial-up
Сообщений: 3,323
Поблагодарил: 1,757
Поблагодарили 4,783 раз в 1,407 сообщениях
Открыли хайд :
2 в этом сообщении
5,329 Всего


По умолчанию [Death Metal] Deicide

Deicide - Deicide



Year: 1990 (Reissue 1998)
Style: Death Metal
Country: USA
Audio: flac+cue+log
Size: 253.3 Mb
Label & Catalog No: Roadrunner Records, USA, RR8744-2

Tracklist:
01. Lunatic Of God's Creation (2:41)
02. Sacrificial Suicide (2:51)
03. Oblivious To Evil (2:41)
04. Dead By Dawn (3:56)
05. Blaspherereion (4:15)
06. Deicide (4:02)
07. Carnage In The Temple Of The Damned (3:33)
08. Mephistopheles (3:35)
09. Day Of Darkness (2:05)
10. Crucifixation (3:55)
________________________
Total playing time: 33:35

Отчёт EAC:
Exact Audio Copy V0.99 prebeta 5 from 4. May 2009

EAC extraction logfile from 5. June 2009, 14:01

Deicide / Deicide

Used drive : PIONEER DVD-RW DVR-216L Adapter: 2 ID: 1

Read mode : Secure
Utilize accurate stream : Yes
Defeat audio cache : Yes
Make use of C2 pointers : No

Read offset correction : 96
Overread into Lead-In and Lead-Out : No
Fill up missing offset samples with silence : Yes
Delete leading and trailing silent blocks : No
Null samples used in CRC calculations : No
Used interface : Native Win32 interface for Win NT & 2000

Used output format : User Defined Encoder
Selected bitrate : 1024 kBit/s
Quality : High
Add ID3 tag : No
Command line compressor : D:ProgsExactAudioCopyFlacflac.exe
Additional command line options : --best -T "ARTIST=%a" -T "TITLE=%t" -T "ALBUM=%g" -T "DATE=%y" -T "TRACKNUMBER=%n" -T "GENRE=%m" %s


TOC of the extracted CD

Track | Start | Length | Start sector | End sector
---------------------------------------------------------
1 | 0:00.00 | 2:41.22 | 0 | 12096
2 | 2:41.22 | 2:51.35 | 12097 | 24956
3 | 5:32.57 | 2:40.58 | 24957 | 37014
4 | 8:13.40 | 3:56.00 | 37015 | 54714
5 | 12:09.40 | 4:15.07 | 54715 | 73846
6 | 16:24.47 | 4:01.53 | 73847 | 91974
7 | 20:26.25 | 3:33.32 | 91975 | 107981
8 | 23:59.57 | 3:34.65 | 107982 | 124096
9 | 27:34.47 | 2:05.05 | 124097 | 133476
10 | 29:39.52 | 3:55.20 | 133477 | 151121


Range status and errors

Selected range

Filename E:temp.musicnewDeicide - 1990 - DeicideDeicide - 1990 - Deicide.wav

Peak level 98.8 %
Range quality 99.9 %
Copy CRC 4B2DFE1A
Copy OK

No errors occurred


AccurateRip summary

Track 1 cannot be verified as accurate (confidence 6) [85F99C13], AccurateRip returned [B8C912D3]
Track 2 cannot be verified as accurate (confidence 6) [C63521E9], AccurateRip returned [DC340AA9]
Track 3 cannot be verified as accurate (confidence 6) [283D2B79], AccurateRip returned [87930109]
Track 4 cannot be verified as accurate (confidence 6) [8A496A30], AccurateRip returned [422E2E20]
Track 5 cannot be verified as accurate (confidence 6) [C27F0C4D], AccurateRip returned [CC96C56D]
Track 6 cannot be verified as accurate (confidence 6) [F17DF5BB], AccurateRip returned [D0ADB7E3]
Track 7 cannot be verified as accurate (confidence 6) [E32B55CF], AccurateRip returned [63978E3F]
Track 8 cannot be verified as accurate (confidence 6) [DB9AB13E], AccurateRip returned [DE99E536]
Track 9 cannot be verified as accurate (confidence 6) [5BBE911B], AccurateRip returned [5D0BD113]
Track 10 cannot be verified as accurate (confidence 6) [CBCDEA87], AccurateRip returned [E1C1A53F]

No tracks could be verified as accurate
You may have a different pressing from the one(s) in the database

End of status report

share.nnov
Чтобы увидеть скрытый текст Вам нужно нажать кнопочку "Открыть Hide"
У вас нет прав чтобы видеть скрытый текст, содержащийся здесь.

Последний раз редактировалось Maniac; 10.06.2009 в 07:45.
Maniac вне форума  
Ответить с цитированием
Эти 2 пользователя(ей) сказали Спасибо Maniac за это полезное сообщение:
ACHERON (10.06.2009), dying_inside (09.06.2009)
Хайд открыли:
ACHERON (10.06.2009), dying_inside (09.06.2009)
Старый 09.06.2009, 14:15   #2
Продюсер
 
Аватар для Maniac
 
Регистрация: 19.09.2007
Пол: M
Провайдер: Dial-up
Сообщений: 3,323
Поблагодарил: 1,757
Поблагодарили 4,783 раз в 1,407 сообщениях
Открыли хайд :
0 в этом сообщении
5,329 Всего


По умолчанию

В архив внешний релизёр вложил какой то бесполезный отчёт кью тулс, не обращайте внимания.
Maniac вне форума  
Ответить с цитированием
Старый 09.06.2009, 22:41   #3
Дружище
 
Аватар для dying_inside
 
Регистрация: 21.12.2006
Пол: M
Провайдер: Стрим
Сообщений: 960
Поблагодарил: 4,777
Поблагодарили 1,524 раз в 555 сообщениях
Открыли хайд :
0 в этом сообщении
537 Всего


По умолчанию

pass?
dying_inside вне форума  
Ответить с цитированием
Старый 10.06.2009, 07:47   #4
Продюсер
 
Аватар для Maniac
 
Регистрация: 19.09.2007
Пол: M
Провайдер: Dial-up
Сообщений: 3,323
Поблагодарил: 1,757
Поблагодарили 4,783 раз в 1,407 сообщениях
Открыли хайд :
0 в этом сообщении
5,329 Всего


По умолчанию

Цитата:
Сообщение от dying_inside Посмотреть сообщение
pass?
Написал в 1 посте.


Цитата:
Сообщение от GrandFess Посмотреть сообщение
ты опять начал их слушать?
нет, я сатанистов не слушаю, скачал для dying_inside )
Maniac вне форума  
Ответить с цитированием
Эти 2 пользователя(ей) сказали Спасибо Maniac за это полезное сообщение:
dying_inside (10.06.2009), fesso (10.06.2009)
Ответ


Здесь присутствуют: 1 (пользователей: 0 , гостей: 1)
 
Опции темы
Опции просмотра

Ваши права в разделе
Вы не можете создавать новые темы
Вы не можете отвечать в темах
Вы не можете прикреплять вложения
Вы не можете редактировать свои сообщения

BB коды Вкл.
Смайлы Вкл.
[IMG] код Вкл.
HTML код Выкл.
Trackbacks are Выкл.
Pingbacks are Выкл.
Refbacks are Выкл.


Часовой пояс GMT +3, время: 00:44.