Вернуться   Нижегородский Форум Друзей > Обсуждаем и качаем > Музыка > Lossless > Hard Клуб > Death Metal Lossless
Забыли пароль? Регистрация



Death Metal Lossless Death Metal / Brutal Death / Technical Death / Melodic Death


Ответ
 
Опции темы Опции просмотра
Старый 09.06.2009, 18:16   #1
Дружище
 
Аватар для xRaiderx
 
Регистрация: 03.10.2007
Адрес: Дзержинск
Пол: M
Сообщений: 719
Поблагодарил: 528
Поблагодарили 1,766 раз в 549 сообщениях
Открыли хайд :
0 в этом сообщении
373 Всего


По умолчанию [Death Metal / Thrash Metal] DevilDriver

Pray for Villains [2009]

FLAC | Tracks | Cue | Log

01. Pray For Villains
02. Pure Sincerity
03. Fate Stepped In
04. Back With A Vengeance
05. I've Been Sober
06. Resurrection Blvd.
07. Forgiveness Is A Six Gun
08. Waiting For November
09. It's In The Cards
10. Another Night In London
11. Bitter Pill
12. Teach Me To Whisper
13. I See Belief

Log:
X Lossless Decoder version 20090320 (105.1)

XLD extraction logfile from 2009-06-08 14:36:49 -0400

Devil Driver / Pray for Villains

Used drive : MATSHITA DVD-R UJ-868 (revision KA14)

Use cdparanoia mode : YES (CDParanoia III 10.2 engine)
Disable audio cache : OK for the drive with cache less than 2750KB
Make use of C2 pointers : NO
Read offset correction : 102
Max retry count : 100

TOC of the extracted CD
Track | Start | Length | Start sector | End sector
---------------------------------------------------------
1 | 00:00:00 | 04:02:44 | 0 | 18193
2 | 04:02:44 | 04:38:25 | 18194 | 39068
3 | 08:40:69 | 05:10:39 | 39069 | 62357
4 | 13:51:33 | 03:40:62 | 62358 | 78919
5 | 17:32:20 | 05:16:35 | 78920 | 102654
6 | 22:48:55 | 03:58:64 | 102655 | 120568
7 | 26:47:44 | 04:33:46 | 120569 | 141089
8 | 31:21:15 | 05:06:58 | 141090 | 164097
9 | 36:27:73 | 04:24:50 | 164098 | 183947
10 | 40:52:48 | 03:05:72 | 183948 | 197894
11 | 43:58:45 | 04:24:16 | 197895 | 217710
12 | 48:22:61 | 04:01:09 | 217711 | 235794
13 | 52:23:70 | 03:54:52 | 235795 | 253396

Track 01
Filename : 01 Devil Driver - Pray for Villains.flac
01 Devil Driver - Pray for Villains.mp3
CRC32 hash (test run) : 948DA2A2
CRC32 hash : 948DA2A2
CRC32 hash (skip zero) : 15BBC9D4
Statistics
Read error : 0
Skipped (treated as error) : 0
Edge jitter error (maybe fixed) : 0
Atom jitter error (maybe fixed) : 0
Drift error (maybe fixed) : 0
Dropped bytes error (maybe fixed) : 0
Duplicated bytes error (maybe fixed) : 0
Inconsistency in error sectors : 0

Track 02
Filename : 02 Devil Driver - Pure Sincerity.flac
02 Devil Driver - Pure Sincerity.mp3
CRC32 hash (test run) : 2BDC1E58
CRC32 hash : 2BDC1E58
CRC32 hash (skip zero) : 7143F21B
Statistics
Read error : 0
Skipped (treated as error) : 0
Edge jitter error (maybe fixed) : 0
Atom jitter error (maybe fixed) : 0
Drift error (maybe fixed) : 0
Dropped bytes error (maybe fixed) : 0
Duplicated bytes error (maybe fixed) : 0
Inconsistency in error sectors : 0

Track 03
Filename : 03 Devil Driver - Fate Stepped In.flac
03 Devil Driver - Fate Stepped In.mp3
CRC32 hash (test run) : BF20F950
CRC32 hash : BF20F950
CRC32 hash (skip zero) : A3A0A119
Statistics
Read error : 0
Skipped (treated as error) : 0
Edge jitter error (maybe fixed) : 0
Atom jitter error (maybe fixed) : 0
Drift error (maybe fixed) : 0
Dropped bytes error (maybe fixed) : 0
Duplicated bytes error (maybe fixed) : 0
Inconsistency in error sectors : 0

Track 04
Filename : 04 Devil Driver - Back with a Vengence.flac
04 Devil Driver - Back with a Vengence.mp3
CRC32 hash (test run) : 9275355B
CRC32 hash : 9275355B
CRC32 hash (skip zero) : 117D7E52
Statistics
Read error : 0
Skipped (treated as error) : 0
Edge jitter error (maybe fixed) : 0
Atom jitter error (maybe fixed) : 0
Drift error (maybe fixed) : 0
Dropped bytes error (maybe fixed) : 0
Duplicated bytes error (maybe fixed) : 0
Inconsistency in error sectors : 0

Track 05
Filename : 05 Devil Driver - I've Been Sober.flac
05 Devil Driver - I've Been Sober.mp3
CRC32 hash (test run) : A9702639
CRC32 hash : A9702639
CRC32 hash (skip zero) : 7B79A6E6
Statistics
Read error : 0
Skipped (treated as error) : 0
Edge jitter error (maybe fixed) : 0
Atom jitter error (maybe fixed) : 0
Drift error (maybe fixed) : 0
Dropped bytes error (maybe fixed) : 0
Duplicated bytes error (maybe fixed) : 0
Inconsistency in error sectors : 0

Track 06
Filename : 06 Devil Driver - Resurrection BLVD.flac
06 Devil Driver - Resurrection BLVD.mp3
CRC32 hash (test run) : 1F269123
CRC32 hash : 1F269123
CRC32 hash (skip zero) : D12578A8
Statistics
Read error : 0
Skipped (treated as error) : 0
Edge jitter error (maybe fixed) : 0
Atom jitter error (maybe fixed) : 0
Drift error (maybe fixed) : 0
Dropped bytes error (maybe fixed) : 0
Duplicated bytes error (maybe fixed) : 0
Inconsistency in error sectors : 0

Track 07
Filename : 07 Devil Driver - Forgiveness is a Six Gun.flac
07 Devil Driver - Forgiveness is a Six Gun.mp3
CRC32 hash (test run) : CD9BB32E
CRC32 hash : CD9BB32E
CRC32 hash (skip zero) : 73E5DD6B
Statistics
Read error : 0
Skipped (treated as error) : 0
Edge jitter error (maybe fixed) : 0
Atom jitter error (maybe fixed) : 0
Drift error (maybe fixed) : 0
Dropped bytes error (maybe fixed) : 0
Duplicated bytes error (maybe fixed) : 0
Inconsistency in error sectors : 0

Track 08
Filename : 08 Devil Driver - Waiting for November.flac
08 Devil Driver - Waiting for November.mp3
CRC32 hash (test run) : 42AB2727
CRC32 hash : 42AB2727
CRC32 hash (skip zero) : 0A61D351
Statistics
Read error : 0
Skipped (treated as error) : 0
Edge jitter error (maybe fixed) : 0
Atom jitter error (maybe fixed) : 0
Drift error (maybe fixed) : 0
Dropped bytes error (maybe fixed) : 0
Duplicated bytes error (maybe fixed) : 0
Inconsistency in error sectors : 0

Track 09
Filename : 09 Devil Driver - It's in the Cards.flac
09 Devil Driver - It's in the Cards.mp3
CRC32 hash (test run) : F39FDB75
CRC32 hash : F39FDB75
CRC32 hash (skip zero) : 68A2901C
Statistics
Read error : 0
Skipped (treated as error) : 0
Edge jitter error (maybe fixed) : 0
Atom jitter error (maybe fixed) : 0
Drift error (maybe fixed) : 0
Dropped bytes error (maybe fixed) : 0
Duplicated bytes error (maybe fixed) : 0
Inconsistency in error sectors : 0

Track 10
Filename : 10 Devil Driver - Anotehr Night in London.flac
10 Devil Driver - Anotehr Night in London.mp3
CRC32 hash (test run) : AA9CBF40
CRC32 hash : AA9CBF40
CRC32 hash (skip zero) : BF2209DD
Statistics
Read error : 0
Skipped (treated as error) : 0
Edge jitter error (maybe fixed) : 0
Atom jitter error (maybe fixed) : 0
Drift error (maybe fixed) : 0
Dropped bytes error (maybe fixed) : 0
Duplicated bytes error (maybe fixed) : 0
Inconsistency in error sectors : 0

Track 11
Filename : 11 Devil Driver - Bitter Pill.flac
11 Devil Driver - Bitter Pill.mp3
CRC32 hash (test run) : 3C98E65C
CRC32 hash : 3C98E65C
CRC32 hash (skip zero) : EAEF3C4B
Statistics
Read error : 0
Skipped (treated as error) : 0
Edge jitter error (maybe fixed) : 0
Atom jitter error (maybe fixed) : 0
Drift error (maybe fixed) : 0
Dropped bytes error (maybe fixed) : 0
Duplicated bytes error (maybe fixed) : 0
Inconsistency in error sectors : 0

Track 12
Filename : 12 Devil Driver - Teach Me to Whisper.flac
12 Devil Driver - Teach Me to Whisper.mp3
CRC32 hash (test run) : 3ACCF57F
CRC32 hash : 3ACCF57F
CRC32 hash (skip zero) : 896A4FD1
Statistics
Read error : 0
Skipped (treated as error) : 0
Edge jitter error (maybe fixed) : 0
Atom jitter error (maybe fixed) : 0
Drift error (maybe fixed) : 0
Dropped bytes error (maybe fixed) : 0
Duplicated bytes error (maybe fixed) : 0
Inconsistency in error sectors : 0

Track 13
Filename : 13 Devil Driver - I See Belief.flac
13 Devil Driver - I See Belief.mp3
CRC32 hash (test run) : 61C7D5EB
CRC32 hash : 61C7D5EB
CRC32 hash (skip zero) : 141063A1
Statistics
Read error : 0
Skipped (treated as error) : 0
Edge jitter error (maybe fixed) : 0
Atom jitter error (maybe fixed) : 0
Drift error (maybe fixed) : 0
Dropped bytes error (maybe fixed) : 0
Duplicated bytes error (maybe fixed) : 0
Inconsistency in error sectors : 0

No errors occurred

End of status report

[Для просмотра данной ссылки нужно зарегистрироваться]
xRaiderx вне форума  
Ответить с цитированием
Эти 5 пользователя(ей) сказали Спасибо xRaiderx за это полезное сообщение:
ACHERON (10.06.2009), CruelDog (09.06.2009), dying_inside (09.06.2009), toshi (10.06.2009), Tretyak (13.06.2009)
Старый 14.07.2009, 19:38   #2
Power User
 
Аватар для toshi
 
Регистрация: 23.09.2008
Адрес: Сормово
Пол: M
Провайдер: Эр-Телеком
Сообщений: 1,304
Поблагодарил: 661
Поблагодарили 2,880 раз в 1,044 сообщениях
Открыли хайд :
0 в этом сообщении
3,238 Всего


По умолчанию

[Для просмотра данной ссылки нужно зарегистрироваться]

Исполнитель: DevilDriver
Альбом: Pray For Villains
Дата выпуска: 2009
Жанр: Metal
Формат: FLAC (tracks)
Битрейт: 985-1096 kbps
Продолжительность: 01:11:37

Треклист:
01. Pray For Villains [00:04:02]
02. Pure Sincerity [00:04:38]
03. Fate Stepped In [00:05:10]
04. Back With A Vengeance [00:03:40]
05. I've Been Sober [00:05:16]
06. Resurrection Blvd. [00:03:58]
07. Forgiveness Is A Six Gun [00:04:33]
08. Waiting For November [00:05:06]
09. It's In The Cards [00:04:24]
10. Another Night In London [00:03:05]
11. Bitter Pill [00:04:24]
12. Teach Me To Whisper [00:04:01]
13. I See Belief [00:03:54]
14. Self-Affliction [00:04:48]
15. Dust Be The Destiny [00:03:09]
16. Damning The Heavens [00:02:19]
17. Wasted Years [00:05:01]


Отчёт EAC:

Exact Audio Copy V0.99 prebeta 5 from 4. May 2009

EAC extraction logfile from 11. July 2009, 22:20

DevilDriver / Pray For Villains

Used drive : TSSTcorpCDDVDW TS-L632H Adapter: 2 ID: 0

Read mode : Secure
Utilize accurate stream : Yes
Defeat audio cache : Yes
Make use of C2 pointers : No

Read offset correction : 6
Overread into Lead-In and Lead-Out : No
Fill up missing offset samples with silence : Yes
Delete leading and trailing silent blocks : No
Null samples used in CRC calculations : Yes
Used interface : Native Win32 interface for Win NT & 2000
Gap handling : Appended to previous track

Used output format : User Defined Encoder
Selected bitrate : 1024 kBit/s
Quality : High
Add ID3 tag : No
Command line compressor : C:\Program Files\Exact Audio Copy\Flac\flac.exe
Additional command line options : -8 -V -T "ARTIST=%a" -T "TITLE=%t" -T "ALBUM=%g" -T "DATE=%y" -T "TRACKNUMBER=%n" -T "GENRE=%m" -T "COMMENT=EAC FLAC -8" %s


TOC of the extracted CD

Track | Start | Length | Start sector | End sector
---------------------------------------------------------
1 | 0:00.00 | 4:02.44 | 0 | 18193
2 | 4:02.44 | 4:38.25 | 18194 | 39068
3 | 8:40.69 | 5:10.39 | 39069 | 62357
4 | 13:51.33 | 3:40.62 | 62358 | 78919
5 | 17:32.20 | 5:16.35 | 78920 | 102654
6 | 22:48.55 | 3:58.64 | 102655 | 120568
7 | 26:47.44 | 4:33.46 | 120569 | 141089
8 | 31:21.15 | 5:06.58 | 141090 | 164097
9 | 36:27.73 | 4:24.50 | 164098 | 183947
10 | 40:52.48 | 3:05.72 | 183948 | 197894
11 | 43:58.45 | 4:24.16 | 197895 | 217710
12 | 48:22.61 | 4:01.09 | 217711 | 235794
13 | 52:23.70 | 3:54.54 | 235795 | 253398
14 | 56:18.49 | 4:48.61 | 253399 | 275059
15 | 61:07.35 | 3:09.51 | 275060 | 289285
16 | 64:17.11 | 2:19.12 | 289286 | 299722
17 | 66:36.23 | 5:01.15 | 299723 | 322312


Track 1

Filename C:\Users\irina\Downloads\DevilDriver - Pray For Villains\01. DevilDriver - Pray For Villains.wav

Pre-gap length 0:00:02.00

Peak level 77.1 %
Track quality 100.0 %
Test CRC 69A367CE
Copy CRC 69A367CE
Copy OK

Track 2

Filename C:\Users\irina\Downloads\DevilDriver - Pray For Villains\02. DevilDriver - Pure Sincerity.wav

Peak level 77.1 %
Track quality 100.0 %
Test CRC E3D6941E
Copy CRC E3D6941E
Copy OK

Track 3

Filename C:\Users\irina\Downloads\DevilDriver - Pray For Villains\03. DevilDriver - Fate Stepped In.wav

Peak level 77.1 %
Track quality 100.0 %
Test CRC 8DFDC766
Copy CRC 8DFDC766
Copy OK

Track 4

Filename C:\Users\irina\Downloads\DevilDriver - Pray For Villains\04. DevilDriver - Back With A Vengeance.wav

Peak level 77.1 %
Track quality 99.9 %
Test CRC 00E99CC3
Copy CRC 00E99CC3
Copy OK

Track 5

Filename C:\Users\irina\Downloads\DevilDriver - Pray For Villains\05. DevilDriver - I've Been Sober.wav

Peak level 77.1 %
Track quality 99.9 %
Test CRC D2717525
Copy CRC D2717525
Copy OK

Track 6

Filename C:\Users\irina\Downloads\DevilDriver - Pray For Villains\06. DevilDriver - Resurrection Blvd..wav

Peak level 77.1 %
Track quality 100.0 %
Test CRC 465BA871
Copy CRC 465BA871
Copy OK

Track 7

Filename C:\Users\irina\Downloads\DevilDriver - Pray For Villains\07. DevilDriver - Forgiveness Is A Six Gun.wav

Peak level 77.1 %
Track quality 99.9 %
Test CRC 5C581FE0
Copy CRC 5C581FE0
Copy OK

Track 8

Filename C:\Users\irina\Downloads\DevilDriver - Pray For Villains\08. DevilDriver - Waiting For November.wav

Peak level 77.1 %
Track quality 100.0 %
Test CRC C887B0ED
Copy CRC C887B0ED
Copy OK

Track 9

Filename C:\Users\irina\Downloads\DevilDriver - Pray For Villains\09. DevilDriver - It's In The Cards.wav

Peak level 77.1 %
Track quality 99.9 %
Test CRC 358C5E49
Copy CRC 358C5E49
Copy OK

Track 10

Filename C:\Users\irina\Downloads\DevilDriver - Pray For Villains\10. DevilDriver - Another Night In London.wav

Peak level 77.1 %
Track quality 99.9 %
Test CRC B47D2751
Copy CRC B47D2751
Copy OK

Track 11

Filename C:\Users\irina\Downloads\DevilDriver - Pray For Villains\11. DevilDriver - Bitter Pill.wav

Peak level 77.1 %
Track quality 100.0 %
Test CRC AAE8FDDB
Copy CRC AAE8FDDB
Copy OK

Track 12

Filename C:\Users\irina\Downloads\DevilDriver - Pray For Villains\12. DevilDriver - Teach Me To Whisper.wav

Peak level 77.1 %
Track quality 100.0 %
Test CRC 981202B4
Copy CRC 981202B4
Copy OK

Track 13

Filename C:\Users\irina\Downloads\DevilDriver - Pray For Villains\13. DevilDriver - I See Belief.wav

Peak level 77.1 %
Track quality 100.0 %
Test CRC DB97257D
Copy CRC DB97257D
Copy OK

Track 14

Filename C:\Users\irina\Downloads\DevilDriver - Pray For Villains\14. DevilDriver - Self-Affliction.wav

Peak level 77.1 %
Track quality 100.0 %
Test CRC C33676C1
Copy CRC C33676C1
Copy OK

Track 15

Filename C:\Users\irina\Downloads\DevilDriver - Pray For Villains\15. DevilDriver - Dust Be The Destiny.wav

Peak level 77.1 %
Track quality 100.0 %
Test CRC 53FF1C0F
Copy CRC 53FF1C0F
Copy OK

Track 16

Filename C:\Users\irina\Downloads\DevilDriver - Pray For Villains\16. DevilDriver - Damning The Heavens.wav

Peak level 76.7 %
Track quality 99.9 %
Test CRC 15FDE8F8
Copy CRC 15FDE8F8
Copy OK

Track 17

Filename C:\Users\irina\Downloads\DevilDriver - Pray For Villains\17. DevilDriver - Wasted Years.wav

Peak level 75.4 %
Track quality 99.9 %
Test CRC CF84C402
Copy CRC CF84C402
Copy OK

No errors occurred

End of status report


[Для просмотра данной ссылки нужно зарегистрироваться]
[Для просмотра данной ссылки нужно зарегистрироваться]
__________________
Подключайтесь к ДОМ.РУ!!!:
[Для просмотра данной ссылки нужно зарегистрироваться]
т.п. "Токио"

Последний раз редактировалось toshi; 14.07.2009 в 19:44.
toshi вне форума  
Ответить с цитированием
Этот пользователь сказал Спасибо toshi за это полезное сообщение:
Wanish666 (19.07.2009)
Ответ


Здесь присутствуют: 1 (пользователей: 0 , гостей: 1)
 
Опции темы
Опции просмотра

Ваши права в разделе
Вы не можете создавать новые темы
Вы не можете отвечать в темах
Вы не можете прикреплять вложения
Вы не можете редактировать свои сообщения

BB коды Вкл.
Смайлы Вкл.
[IMG] код Вкл.
HTML код Выкл.
Trackbacks are Выкл.
Pingbacks are Выкл.
Refbacks are Выкл.


Часовой пояс GMT +3, время: 14:38.