Вернуться   Нижегородский Форум Друзей > Обсуждаем и качаем > Музыка > Lossless > Hard Клуб > Death Metal Lossless
Забыли пароль? Регистрация



Death Metal Lossless Death Metal / Brutal Death / Technical Death / Melodic Death


Ответ
 
Опции темы Опции просмотра
Старый 13.06.2009, 10:04   #1
Core LoVe
 
Аватар для Qwenn
 
Регистрация: 24.10.2007
Адрес: Богородск
Пол: M
Провайдер: ВТ
Сообщений: 2,581
Поблагодарил: 1,746
Поблагодарили 2,805 раз в 1,066 сообщениях
Открыли хайд :
6 в этом сообщении
3,319 Всего


По умолчанию [Progressive Technical Death Metal] Gorod

Gorod - Process of a New Decline (2009) | FLAC | LOG | CUE



треклист
1. Disavow Your God 05:02
2. Programmers of Decline 05:11
3. Diverted Logic 04:58
4. Rebirth of Senses 04:05
5. The Path 03:44
6. Splinters of Life 05:20
7. Guilty of Dispersal 04:23
8. Gilded Cage 03:25
9. A Common Hope 04:16
10. Watershed 05:05
11. Almighty Murderer 04:26

share.nnov.ru

Чтобы увидеть скрытый текст Вам нужно нажать кнопочку "Открыть Hide"
У вас нет прав чтобы видеть скрытый текст, содержащийся здесь.
__________________


[Для просмотра данной ссылки нужно зарегистрироваться]
Qwenn вне форума  
Ответить с цитированием
Эти 7 пользователя(ей) сказали Спасибо Qwenn за это полезное сообщение:
ACHERON (13.06.2009), CruelDog (14.06.2009), dying_inside (13.06.2009), fesso (14.06.2009), mezzo (13.06.2009), RattleheaD (13.06.2009), SuffoCore (13.06.2009)
Хайд открыли:
SuffoCore (15.06.2009), fesso (14.06.2009), CruelDog (14.06.2009), ACHERON (13.06.2009), mezzo (13.06.2009), RattleheaD (13.06.2009)
Старый 13.06.2009, 13:41   #2
Товарищ
 
Регистрация: 17.08.2007
Пол: М
Провайдер: ТТК
Сообщений: 376
Поблагодарил: 264
Поблагодарили 278 раз в 109 сообщениях
Открыли хайд :
0 в этом сообщении
297 Всего


По умолчанию

Qwenn, а ты чего логи не выкладываешь и не указываешь образ или нарезка? Просто для меня это принципиально и потрековые рипы я не качаю. Группа-то мега, а везде пока только tracks.
Sophist вне форума  
Ответить с цитированием
Этот пользователь сказал Спасибо Sophist за это полезное сообщение:
mezzo (13.06.2009)
Старый 13.06.2009, 15:22   #3
Дружище
 
Аватар для dying_inside
 
Регистрация: 21.12.2006
Пол: M
Провайдер: Стрим
Сообщений: 960
Поблагодарил: 4,777
Поблагодарили 1,524 раз в 555 сообщениях
Открыли хайд :
0 в этом сообщении
537 Всего


По умолчанию

лог:
EAC extraction logfile from 9. June 2009, 12:44 for CD
Gorod / Process of a New Decline

Used drive : HL-DT-STDVDRAM GSA-T40L Adapter: 0 ID: 0
Read mode : Secure with NO C2, accurate stream, disable cache
Read offset correction : 667
Overread into Lead-In and Lead-Out : No

Used output format : C:\Program Files\FLAC\flac.exe (User Defined Encoder)
320 kBit/s
Additional command line options : -V -8 -T "artist=%a" -T "title=%t" -T "album=%g" -T "date=%y" -T "tracknumber=%n" -T "genre=%m" %s

Other options :
Fill up missing offset samples with silence : Yes
Delete leading and trailing silent blocks : No
Native Win32 interface for Win NT & 2000


Track 1
Filename D:\EAC\Gorod - 2009 - Process of a New Decline\01 - Disavow Your God.wav

Pre-gap length 0:00:02.00

Peak level 98.8 %
Track quality 100.0 %
Test CRC 58751864
Copy CRC 58751864
Copy OK

Track 2
Filename D:\EAC\Gorod - 2009 - Process of a New Decline\02 - Programmers of Decline.wav

Pre-gap length 0:00:02.00

Peak level 98.8 %
Track quality 100.0 %
Test CRC C297F8F8
Copy CRC C297F8F8
Copy OK

Track 3
Filename D:\EAC\Gorod - 2009 - Process of a New Decline\03 - Diverted Logic.wav

Pre-gap length 0:00:02.00

Peak level 98.8 %
Track quality 100.0 %
Test CRC 0D22B71F
Copy CRC 0D22B71F
Copy OK

Track 4
Filename D:\EAC\Gorod - 2009 - Process of a New Decline\04 - Rebirth of Senses.wav

Pre-gap length 0:00:02.00

Peak level 98.8 %
Track quality 100.0 %
Test CRC 8CC0D7D0
Copy CRC 8CC0D7D0
Copy OK

Track 5
Filename D:\EAC\Gorod - 2009 - Process of a New Decline\05 - The Path.wav

Pre-gap length 0:00:02.00

Peak level 98.9 %
Track quality 100.0 %
Test CRC DC520950
Copy CRC DC520950
Copy OK

Track 6
Filename D:\EAC\Gorod - 2009 - Process of a New Decline\06 - Splinters of Life.wav

Pre-gap length 0:00:02.00

Peak level 98.8 %
Track quality 100.0 %
Test CRC 36D4C6ED
Copy CRC 36D4C6ED
Copy OK

Track 7
Filename D:\EAC\Gorod - 2009 - Process of a New Decline\07 - Guilty of Dispersal.wav

Pre-gap length 0:00:02.00

Peak level 98.9 %
Track quality 99.9 %
Test CRC 07684F56
Copy CRC 07684F56
Copy OK

Track 8
Filename D:\EAC\Gorod - 2009 - Process of a New Decline\08 - Gilded Cage.wav

Pre-gap length 0:00:02.00

Peak level 98.9 %
Track quality 100.0 %
Test CRC C739D699
Copy CRC C739D699
Copy OK

Track 9
Filename D:\EAC\Gorod - 2009 - Process of a New Decline\09 - A Common Hope.wav

Pre-gap length 0:00:02.00

Peak level 98.8 %
Track quality 100.0 %
Test CRC 92EA1C91
Copy CRC 92EA1C91
Copy OK

Track 10
Filename D:\EAC\Gorod - 2009 - Process of a New Decline\10 - Watershed.wav

Pre-gap length 0:00:02.00

Peak level 98.8 %
Track quality 100.0 %
Test CRC 315F5CF0
Copy CRC 315F5CF0
Copy OK

Track 11
Filename D:\EAC\Gorod - 2009 - Process of a New Decline\11 - Almighty's Murderer.wav

Pre-gap length 0:00:02.00

Peak level 98.8 %
Track quality 100.0 %
Test CRC 3617DF09
Copy CRC 3617DF09
Copy OK

No errors occured


End of status report
dying_inside вне форума  
Ответить с цитированием
Этот пользователь сказал Спасибо dying_inside за это полезное сообщение:
Sophist (13.06.2009)
Старый 13.06.2009, 15:36   #4
Товарищ
 
Регистрация: 17.08.2007
Пол: М
Провайдер: ТТК
Сообщений: 376
Поблагодарил: 264
Поблагодарили 278 раз в 109 сообщениях
Открыли хайд :
0 в этом сообщении
297 Всего


По умолчанию

Tracks, понятно.
Sophist вне форума  
Ответить с цитированием
Старый 14.06.2009, 18:41   #5
Знакомый
 
Аватар для SuffoCore
 
Регистрация: 16.04.2009
Адрес: НН, Щербинки
Пол: M
Провайдер: ВТ
Сообщений: 41
Поблагодарил: 125
Поблагодарили 33 раз в 14 сообщениях
Открыли хайд :
0 в этом сообщении
0 Всего


По умолчанию

Qwenn, спасибо, люблю этих технарей!)
SuffoCore вне форума  
Ответить с цитированием
Старый 14.06.2009, 20:27   #6
Core LoVe
 
Аватар для Qwenn
 
Регистрация: 24.10.2007
Адрес: Богородск
Пол: M
Провайдер: ВТ
Сообщений: 2,581
Поблагодарил: 1,746
Поблагодарили 2,805 раз в 1,066 сообщениях
Открыли хайд :
0 в этом сообщении
3,319 Всего


По умолчанию

Sophist, а ты думаешь их указывают на выкладываемом источнике? увы нет
__________________


[Для просмотра данной ссылки нужно зарегистрироваться]
Qwenn вне форума  
Ответить с цитированием
Старый 14.06.2009, 20:46   #7
Core LoVe
 
Аватар для Qwenn
 
Регистрация: 24.10.2007
Адрес: Богородск
Пол: M
Провайдер: ВТ
Сообщений: 2,581
Поблагодарил: 1,746
Поблагодарили 2,805 раз в 1,066 сообщениях
Открыли хайд :
0 в этом сообщении
3,319 Всего


По умолчанию

а нефиг в такое время качать
__________________


[Для просмотра данной ссылки нужно зарегистрироваться]
Qwenn вне форума  
Ответить с цитированием
Ответ


Здесь присутствуют: 1 (пользователей: 0 , гостей: 1)
 
Опции темы
Опции просмотра

Ваши права в разделе
Вы не можете создавать новые темы
Вы не можете отвечать в темах
Вы не можете прикреплять вложения
Вы не можете редактировать свои сообщения

BB коды Вкл.
Смайлы Вкл.
[IMG] код Вкл.
HTML код Выкл.
Trackbacks are Выкл.
Pingbacks are Выкл.
Refbacks are Выкл.


Часовой пояс GMT +3, время: 07:24.