Вернуться   Нижегородский Форум Друзей > Обсуждаем и качаем > Музыка > Lossless > Hard Клуб > Death Metal Lossless
Забыли пароль? Регистрация



Death Metal Lossless Death Metal / Brutal Death / Technical Death / Melodic Death


Ответ
 
Опции темы Опции просмотра
Старый 19.06.2009, 16:56   #1
Продюсер
 
Аватар для Maniac
 
Регистрация: 19.09.2007
Пол: M
Провайдер: Dial-up
Сообщений: 3,323
Поблагодарил: 1,757
Поблагодарили 4,783 раз в 1,407 сообщениях
Открыли хайд :
2 в этом сообщении
5,329 Всего


По умолчанию [Death Metal / Grind] Blood (Ger)


Цитата:
Очень чистое продюсирование звука, рычащий вокал (поддержанный!), кричащий бэк-вокал, низко настроенные гитары и взрывные ударные. Отличная композиторская работа для альбома! Некоторое влияние Crust и Grind. Если Вам нравится насыщенный, быстрый и не отличающийся техничностью Death Metal, то Mental Conflicts для Вас. Это один из лучших альбомов Blood. Искренняя андеграундная брутальность...
Blood - Mental Conflict



Год: 1994
Тип рипа: Flac+Cue+Log
Размер: 268.9

Tracklist
01. Intro (Tentacles)
02. Insomnia
03. Toothache
04. Master'S Clemency
05. Secrets Of Blood
06. Mental Conflict
07. Bleed For Me
08. Spreading The Thoughts
09. Blood
10. Stretched
11. Away Is Away
12. For Auld Lang Syne
13. Crown Court
14. Inflame
15. Texas Chainsaw Massacre
16. Naked Frozen
17. Bloodprice
18. The Favour Of Ecstasy
19. Morpheus
20. I Dream Dead

Отчёт EAC:
Exact Audio Copy V0.99 prebeta 5 from 4. May 2009

EAC extraction logfile from 7. June 2009, 17:23

Blood / Mental Conflicts

Used drive : TEAC CD-W540E Adapter: 0 ID: 0

Read mode : Secure
Utilize accurate stream : Yes
Defeat audio cache : Yes
Make use of C2 pointers : No

Read offset correction : 686
Overread into Lead-In and Lead-Out : No
Fill up missing offset samples with silence : Yes
Delete leading and trailing silent blocks : No
Null samples used in CRC calculations : No
Used interface : Native Win32 interface for Win NT & 2000

Used output format : User Defined Encoder
Selected bitrate : 1024 kBit/s
Quality : High
Add ID3 tag : No
Command line compressor : D:\Progs\ExactAudioCopy\Flac\flac.exe
Additional command line options : --best -T "ARTIST=%a" -T "TITLE=%t" -T "ALBUM=%g" -T "DATE=%y" -T "TRACKNUMBER=%n" -T "GENRE=%m" %s


TOC of the extracted CD

Track | Start | Length | Start sector | End sector
---------------------------------------------------------
1 | 0:00.00 | 1:18.12 | 0 | 5861
2 | 1:18.12 | 1:37.45 | 5862 | 13181
3 | 2:55.57 | 1:13.00 | 13182 | 18656
4 | 4:08.57 | 1:17.18 | 18657 | 24449
5 | 5:26.00 | 1:32.10 | 24450 | 31359
6 | 6:58.10 | 2:05.65 | 31360 | 40799
7 | 9:04.00 | 2:05.45 | 40800 | 50219
8 | 11:09.45 | 1:44.32 | 50220 | 58051
9 | 12:54.02 | 1:30.18 | 58052 | 64819
10 | 14:24.20 | 2:24.10 | 64820 | 75629
11 | 16:48.30 | 1:54.50 | 75630 | 84229
12 | 18:43.05 | 2:05.45 | 84230 | 93649
13 | 20:48.50 | 3:08.00 | 93650 | 107749
14 | 23:56.50 | 1:16.12 | 107750 | 113461
15 | 25:12.62 | 2:44.05 | 113462 | 125766
16 | 27:56.67 | 1:19.55 | 125767 | 131746
17 | 29:16.47 | 1:58.35 | 131747 | 140631
18 | 31:15.07 | 1:31.15 | 140632 | 147471
19 | 32:46.22 | 2:22.00 | 147472 | 158121
20 | 35:08.22 | 3:21.15 | 158122 | 173211


Range status and errors

Selected range

Filename E:\temp.music\!Help\Blood\1994 - Mental Conflicts\Blood - 1994 - Mental Conflicts.wav

Peak level 99.3 %
Range quality 99.9 %
Copy CRC B6D7FA0E
Copy OK

No errors occurred


AccurateRip summary

Track 1 cannot be verified as accurate (confidence 1) [FC2B1DD4], AccurateRip returned [C31E44F4]
Track 2 cannot be verified as accurate (confidence 1) [EB8C33FB], AccurateRip returned [3BA5C37C]
Track 3 cannot be verified as accurate (confidence 1) [517BE3B2], AccurateRip returned [E5AF6C17]
Track 4 cannot be verified as accurate (confidence 1) [B4EA9766], AccurateRip returned [5F91C951]
Track 5 cannot be verified as accurate (confidence 1) [57D65EB3], AccurateRip returned [B888F0AD]
Track 6 cannot be verified as accurate (confidence 1) [3B079F80], AccurateRip returned [BEB05F17]
Track 7 cannot be verified as accurate (confidence 1) [F1274402], AccurateRip returned [4C5D74F3]
Track 8 cannot be verified as accurate (confidence 1) [410A562F], AccurateRip returned [5A6AAEE0]
Track 9 cannot be verified as accurate (confidence 1) [D560C296], AccurateRip returned [922CB7F8]
Track 10 cannot be verified as accurate (confidence 1) [43A3AF4F], AccurateRip returned [6EB8E568]
Track 11 cannot be verified as accurate (confidence 1) [E915DDC8], AccurateRip returned [44A11B92]
Track 12 cannot be verified as accurate (confidence 1) [E9A3039A], AccurateRip returned [EA3E115B]
Track 13 cannot be verified as accurate (confidence 1) [7D9D4F0F], AccurateRip returned [26B56C91]
Track 14 cannot be verified as accurate (confidence 1) [0EC42448], AccurateRip returned [07EBC6E7]
Track 15 cannot be verified as accurate (confidence 1) [6632A8B4], AccurateRip returned [9BDF2812]
Track 16 cannot be verified as accurate (confidence 1) [E5625B25], AccurateRip returned [ACE5A9EF]
Track 17 cannot be verified as accurate (confidence 1) [CCEA0D1E], AccurateRip returned [C6FC1AEA]
Track 18 cannot be verified as accurate (confidence 1) [704E074C], AccurateRip returned [D17093BE]
Track 19 cannot be verified as accurate (confidence 1) [0A14D123], AccurateRip returned [62B34274]
Track 20 cannot be verified as accurate (confidence 1) [74907ED1], AccurateRip returned [CA886C08]

No tracks could be verified as accurate
You may have a different pressing from the one(s) in the database

End of status report

share.nnov
Чтобы увидеть скрытый текст Вам нужно нажать кнопочку "Открыть Hide"
У вас нет прав чтобы видеть скрытый текст, содержащийся здесь.

Последний раз редактировалось Maniac; 19.06.2009 в 17:11.
Maniac вне форума  
Ответить с цитированием
Этот пользователь сказал Спасибо Maniac за это полезное сообщение:
ACHERON (19.06.2009)
Хайд открыли:
DreadMashine (19.06.2009), ACHERON (19.06.2009)
Ответ


Здесь присутствуют: 1 (пользователей: 0 , гостей: 1)
 
Опции темы
Опции просмотра

Ваши права в разделе
Вы не можете создавать новые темы
Вы не можете отвечать в темах
Вы не можете прикреплять вложения
Вы не можете редактировать свои сообщения

BB коды Вкл.
Смайлы Вкл.
[IMG] код Вкл.
HTML код Выкл.
Trackbacks are Выкл.
Pingbacks are Выкл.
Refbacks are Выкл.


Часовой пояс GMT +3, время: 14:49.