Вернуться   Нижегородский Форум Друзей > Обсуждаем и качаем > Музыка > Lossless > Hard Клуб > Death Metal Lossless
Забыли пароль? Регистрация



Death Metal Lossless Death Metal / Brutal Death / Technical Death / Melodic Death


Ответ
 
Опции темы Опции просмотра
Старый 23.06.2009, 17:05   #1
Хороший Друг
 
Регистрация: 07.03.2008
Адрес: Everywhere
Пол: М
Провайдер: Другой
Сообщений: 462
Поблагодарил: 654
Поблагодарили 861 раз в 293 сообщениях
Открыли хайд :
9 в этом сообщении
960 Всего


По умолчанию [Progressive Death Metal] Edge Of Sanity

Edge Of Sanity - 1994 - Purgatory Afterglow (Black Mark BMCD 61)



Country: Sweden
Genre: Progressive Death Metal
Year: 1994
Format: APE (image + .cue)
Source: Antipaladin666 ([Для просмотра данной ссылки нужно зарегистрироваться])

TrackList:

01. Twilight (7:51)
02. Of Darksome Origin (5:03)
03. Blood-Colored (4:00)
04. Silent (5:06)
05. Black Tears (3:15)
06. Elegy (3:58)
07. Velvet Dreams (7:10)
08. Enter Chaos (2:25)
09. The Sinner And The Sadness (3:06)
10. Song Of Sirens (2:33)
11. - untitled - (0:04)
12. - untitled - (0:04)
13. - untitled - (0:04)
14. - untitled - (0:04)
15. - untitled - (0:04)
16. - untitled - (0:04)
17. - untitled - (0:04)
18. - untitled - (0:04)
19. - untitled - (0:04)
20. - untitled - (0:04)
21. - untitled - (0:04)

EAC Log:

Exact Audio Copy V0.99 prebeta 4 from 23. January 2008

EAC extraction logfile from 21. June 2009, 19:49

Edge Of Sanity / Purgatory Afterglow

Used drive : PIONEER DVD-ROM DVD-122M Adapter: 0 ID: 3

Read mode : Secure
Utilize accurate stream : Yes
Defeat audio cache : Yes
Make use of C2 pointers : No

Read offset correction : 738
Overread into Lead-In and Lead-Out : No
Fill up missing offset samples with silence : Yes
Delete leading and trailing silent blocks : No
Null samples used in CRC calculations : Yes
Used interface : Native Win32 interface for Win NT & 2000

Used output format : Internal WAV Routines
Sample format : 44.100 Hz; 16 Bit; Stereo


TOC of the extracted CD

Track | Start | Length | Start sector | End sector
---------------------------------------------------------
1 | 0:00.00 | 7:51.07 | 0 | 35331
2 | 7:51.07 | 5:02.63 | 35332 | 58044
3 | 12:53.70 | 4:00.37 | 58045 | 76081
4 | 16:54.32 | 5:05.43 | 76082 | 98999
5 | 22:00.00 | 3:15.17 | 99000 | 113641
6 | 25:15.17 | 3:57.45 | 113642 | 131461
7 | 29:12.62 | 7:10.13 | 131462 | 163724
8 | 36:23.00 | 2:24.65 | 163725 | 174589
9 | 38:47.65 | 3:06.37 | 174590 | 188576
10 | 41:54.27 | 2:33.10 | 188577 | 200061
11 | 44:27.37 | 0:04.00 | 200062 | 200361
12 | 44:31.37 | 0:04.00 | 200362 | 200661
13 | 44:35.37 | 0:04.00 | 200662 | 200961
14 | 44:39.37 | 0:04.00 | 200962 | 201261
15 | 44:43.37 | 0:04.00 | 201262 | 201561
16 | 44:47.37 | 0:04.00 | 201562 | 201861
17 | 44:51.37 | 0:04.00 | 201862 | 202161
18 | 44:55.37 | 0:04.00 | 202162 | 202461
19 | 44:59.37 | 0:04.00 | 202462 | 202761
20 | 45:03.37 | 0:04.00 | 202762 | 203061
21 | 45:07.37 | 0:04.00 | 203062 | 203361


Range status and errors

Selected range

Filename D:\Edge Of Sanity - Purgatory Afterglow.wav

Peak level 98.0 %
Range quality 100.0 %
Copy CRC 9D42905D
Copy OK

No errors occurred


AccurateRip summary

Track 1 accurately ripped (confidence 9) [AE6C8D9F]
Track 2 accurately ripped (confidence 9) [E08DC2F6]
Track 3 accurately ripped (confidence 9) [91792C6E]
Track 4 accurately ripped (confidence 9) [363B2419]
Track 5 accurately ripped (confidence 9) [8677739B]
Track 6 accurately ripped (confidence 9) [824BF565]
Track 7 accurately ripped (confidence 9) [5AF3F8D5]
Track 8 accurately ripped (confidence 9) [9458784C]
Track 9 accurately ripped (confidence 9) [EE63FB7A]
Track 10 accurately ripped (confidence 9) [EA4AF679]
Track 11 not present in database
Track 12 not present in database
Track 13 not present in database
Track 14 not present in database
Track 15 not present in database
Track 16 not present in database
Track 17 not present in database
Track 18 not present in database
Track 19 not present in database
Track 20 not present in database
Track 21 not present in database

0 track(s) accurately ripped
11 track(s) not present in the AccurateRip database

Some tracks could not be verified as accurate

End of status report


Ссылки на share.nnov.ru:

Чтобы увидеть скрытый текст Вам нужно нажать кнопочку "Открыть Hide"
У вас нет прав чтобы видеть скрытый текст, содержащийся здесь.
Avelis вне форума  
Ответить с цитированием
Эти 6 пользователя(ей) сказали Спасибо Avelis за это полезное сообщение:
ACHERON (23.06.2009), barsik33 (23.06.2009), dying_inside (23.06.2009), Erroneous (25.06.2009), fesso (27.06.2009), mezzo (03.07.2009)
Хайд открыли:
murzikus (23.10.2009), drich (05.08.2009), mezzo (03.07.2009), fesso (27.06.2009), DreadMashine (26.06.2009), Erroneous (25.06.2009), ACHERON (23.06.2009), dying_inside (23.06.2009), barsik33 (23.06.2009)
Старый 02.07.2009, 21:45   #2
Хороший Друг
 
Регистрация: 07.03.2008
Адрес: Everywhere
Пол: М
Провайдер: Другой
Сообщений: 462
Поблагодарил: 654
Поблагодарили 861 раз в 293 сообщениях
Открыли хайд :
3 в этом сообщении
960 Всего


По умолчанию

Edge Of Sanity - 1992 - Unorthodox (Black Mark Production BMCD-18)



Country: Sweden
Genre: Progressive Death Metal
Year: 1992
Format: FLAC (image + .cue)
Source: Sophist ([Для просмотра данной ссылки нужно зарегистрироваться])

TrackList:

01. The Unorthodox (0:38)
02. Enigma (7:06)
03. Incipience To The Butchery (2:00)
04. In The Veins/Darker Than Black (4:42)
05. Everlasting (5:34)
06. After Afterlife (4:37)
07. Beyond The Unknown (3:51)
08. Nocturnal (5:36)
09. A Curfew For The Damned (4:31)
10. Cold Sun (2:54)
11. The Day Of Maturity (3:44)
12. Requiscon By Page (1:24)
13. Dead But Dreaming (4:04)
14. When All Is Said (6:53)

EAC Log:

EAC extraction logfile from 16. November 2007, 15:02 for CD
Edge of Sanity / Unorthodox

Used drive : HL-DT-STDVDRAM GSA-4167B Adapter: 1 ID: 1
Read mode : Secure with NO C2, accurate stream, disable cache
Read offset correction : 667
Overread into Lead-In and Lead-Out : No

Used output format : C:\Program Files\EAC\flac.exe (User Defined Encoder)
320 kBit/s
Additional command line options : -8 -V -T "ARTIST=%a" -T "TITLE=%t" -T "ALBUM=%g" -T "DATE=%y" -T "TRACKNUMBER=%n" -T "GENRE=%m" -T "COMMENT=%e" %s -o %d

Other options :
Fill up missing offset samples with silence : Yes
Delete leading and trailing silent blocks : No
Installed external ASPI interface


Range status and errors
Selected range
Filename E:\Recordings\Edge of Sanity - Unorthodox.flac.wav

Peak level 100.0 %
Range quality 100.0 %
CRC 84FB58E7
Copy OK

No errors occured

End of status report


Ссылки на share.nnov.ru:

Чтобы увидеть скрытый текст Вам нужно нажать кнопочку "Открыть Hide"
У вас нет прав чтобы видеть скрытый текст, содержащийся здесь.
Avelis вне форума  
Ответить с цитированием
Эти 2 пользователя(ей) сказали Спасибо Avelis за это полезное сообщение:
dying_inside (02.07.2009), Erroneous (03.07.2009)
Хайд открыли:
drich (05.08.2009), Erroneous (03.07.2009), dying_inside (02.07.2009)
Старый 02.07.2009, 21:49   #3
Хороший Друг
 
Регистрация: 07.03.2008
Адрес: Everywhere
Пол: М
Провайдер: Другой
Сообщений: 462
Поблагодарил: 654
Поблагодарили 861 раз в 293 сообщениях
Открыли хайд :
3 в этом сообщении
960 Всего


По умолчанию

Edge Of Sanity - 1997 - Cryptic (Black Mark Production BMCD-125)



Country: Sweden
Genre: Progressive Death Metal
Year: 1997
Format: FLAC (image + .cue)
Source: dimonamart ([Для просмотра данной ссылки нужно зарегистрироваться])

TrackList:

01. Hell Written (4:35)
02. Uncontroll Me (5:56)
03. No Destiny (3:35)
04. Demon I (4:16)
05. Not Of This World (3:51)
06. Dead I Walk (3:26)
07. Born, Breed, Bleeding (4:30)
08. Bleed You Dry (5:23)

EAC Log:

Exact Audio Copy V0.99 prebeta 4 from 23. January 2008

EAC extraction logfile from 30. June 2009, 23:22

Edge Of Sanity / Cryptic

Used drive : PIONEER DVD-RW DVR-112D Adapter: 0 ID: 0

Read mode : Secure
Utilize accurate stream : Yes
Defeat audio cache : Yes
Make use of C2 pointers : No

Read offset correction : 48
Overread into Lead-In and Lead-Out : No
Fill up missing offset samples with silence : Yes
Delete leading and trailing silent blocks : No
Null samples used in CRC calculations : Yes
Used interface : Native Win32 interface for Win NT & 2000

Used output format : User Defined Encoder
Selected bitrate : 320 kBit/s
Quality : High
Add ID3 tag : No
Command line compressor : C:\Program Files (x86)\Exact Audio Copy\FLAC\FLAC.EXE
Additional command line options : -8 -V -T "ARTIST=%a" -T "TITLE=%t" -T "ALBUM=%g" -T "DATE=%y" -T "TRACKNUMBER=%n" -T "GENRE=%m" -T "COMMENT=%e" %s -o %d


TOC of the extracted CD

Track | Start | Length | Start sector | End sector
---------------------------------------------------------
1 | 0:00.00 | 4:35.05 | 0 | 20629
2 | 4:35.05 | 5:55.62 | 20630 | 47316
3 | 10:30.67 | 3:35.35 | 47317 | 63476
4 | 14:06.27 | 4:16.20 | 63477 | 82696
5 | 18:22.47 | 3:50.63 | 82697 | 100009
6 | 22:13.35 | 3:26.07 | 100010 | 115466
7 | 25:39.42 | 4:30.18 | 115467 | 135734
8 | 30:09.60 | 5:23.35 | 135735 | 159994


Range status and errors

Selected range

Filename C:\Edge Of Sanity - Cryptic [1997,Black Mark,BMCD-125]\CDImage.wav

Peak level 96.9 %
Range quality 100.0 %
Test CRC D318C97D
Copy CRC D318C97D
Copy OK

No errors occurred


AccurateRip summary

Track 1 accurately ripped (confidence 9) [B8B0D2DC]
Track 2 accurately ripped (confidence 9) [8F958B25]
Track 3 accurately ripped (confidence 9) [368FCE88]
Track 4 accurately ripped (confidence 9) [23CE982C]
Track 5 accurately ripped (confidence 9) [BBD2ABDC]
Track 6 accurately ripped (confidence 9) [AE667991]
Track 7 accurately ripped (confidence 9) [1FD2DA6C]
Track 8 accurately ripped (confidence 9) [501500F1]

All tracks accurately ripped

End of status report


Ссылки на share.nnov.ru:

Чтобы увидеть скрытый текст Вам нужно нажать кнопочку "Открыть Hide"
У вас нет прав чтобы видеть скрытый текст, содержащийся здесь.
Avelis вне форума  
Ответить с цитированием
Эти 3 пользователя(ей) сказали Спасибо Avelis за это полезное сообщение:
dying_inside (02.07.2009), Erroneous (03.07.2009), Циничная сволочь (22.07.2009)
Хайд открыли:
drich (05.08.2009), Erroneous (03.07.2009), dying_inside (02.07.2009)
Старый 21.07.2009, 23:15   #4
Дружище
 
Аватар для dying_inside
 
Регистрация: 21.12.2006
Пол: M
Провайдер: Стрим
Сообщений: 960
Поблагодарил: 4,777
Поблагодарили 1,524 раз в 555 сообщениях
Открыли хайд :
5 в этом сообщении
537 Всего


По умолчанию

кароч оригиналы обоих кримсонов, оформлять лень
Чтобы увидеть скрытый текст Вам нужно нажать кнопочку "Открыть Hide"
У вас нет прав чтобы видеть скрытый текст, содержащийся здесь.
dying_inside вне форума  
Ответить с цитированием
Эти 3 пользователя(ей) сказали Спасибо dying_inside за это полезное сообщение:
fesso (22.07.2009), Nephilim (22.07.2009), Циничная сволочь (22.07.2009)
Хайд открыли:
DreadMashine (26.07.2009), Nephilim (22.07.2009), Циничная сволочь (22.07.2009), fesso (22.07.2009), SuffoCore (22.07.2009)
Ответ


Здесь присутствуют: 1 (пользователей: 0 , гостей: 1)
 
Опции темы
Опции просмотра

Ваши права в разделе
Вы не можете создавать новые темы
Вы не можете отвечать в темах
Вы не можете прикреплять вложения
Вы не можете редактировать свои сообщения

BB коды Вкл.
Смайлы Вкл.
[IMG] код Вкл.
HTML код Выкл.
Trackbacks are Выкл.
Pingbacks are Выкл.
Refbacks are Выкл.


Часовой пояс GMT +3, время: 14:10.