Вернуться   Нижегородский Форум Друзей > Обсуждаем и качаем > Музыка > Lossless > Hard Клуб > Death Metal Lossless
Забыли пароль? Регистрация



Death Metal Lossless Death Metal / Brutal Death / Technical Death / Melodic Death
Описание темы:сравнительно неплохой death из Андорры...


Ответ
 
Опции темы Опции просмотра
Старый 31.07.2009, 23:59   #1
 
Аватар для Циничная сволочь
 
Регистрация: 29.08.2008
Адрес: Россия, Нижний Новгород.
Пол: M
Провайдер: ВТ
Сообщений: 2,362
Поблагодарил: 542
Поблагодарили 2,475 раз в 954 сообщениях
Открыли хайд :
0 в этом сообщении
4 Всего


По умолчанию [Progressive Melodic Death Metal] Persefone



Информация | Треклист | EAC



Информация | Треклист | EAC

============

Ссылка

Последний раз редактировалось Циничная сволочь; 01.08.2009 в 00:04.
Циничная сволочь вне форума  
Ответить с цитированием
Эти 3 пользователя(ей) сказали Спасибо Циничная сволочь за это полезное сообщение:
ACHERON (02.08.2009), ILLUMINATY (07.08.2009), zarkiy (08.08.2009)
Старый 06.09.2009, 17:37   #2
Дружище
 
Аватар для dying_inside
 
Регистрация: 21.12.2006
Пол: M
Провайдер: Стрим
Сообщений: 960
Поблагодарил: 4,777
Поблагодарили 1,524 раз в 555 сообщениях
Открыли хайд :
3 в этом сообщении
537 Всего


По умолчанию

[Для просмотра данной ссылки нужно зарегистрироваться]



Tracklist:

1. The Ground Book (Intro)
2. Fall To Rise
3. Death Before Dishonour
4. The Water Book
5. The Endless Path
6. The Wind Book
7. Purity
8. Rage Stained Blade
9. The Fire Book
10. Kusanagi
11. Shin-ken Part Ⅰ
12. Shin-ken Part Ⅱ
13. The Void Book
14. Japanese Poem
15. The Sword Of The Warrior (Cacophony cover)

Лог EAC:
Exact Audio Copy V0.99 prebeta 4 from 23. January 2008

EAC extraction logfile from 5. September 2009, 2:41

Persefone / Shin-Ken

Used drive : HL-DT-STBDDVDRW CT10N Adapter: 1 ID: 0

Read mode : Secure
Utilize accurate stream : Yes
Defeat audio cache : Yes
Make use of C2 pointers : No

Read offset correction : 667
Overread into Lead-In and Lead-Out : No
Fill up missing offset samples with silence : Yes
Delete leading and trailing silent blocks : No
Null samples used in CRC calculations : Yes
Used interface : Native Win32 interface for Win NT & 2000
Gap handling : Appended to previous track

Used output format : User Defined Encoder
Selected bitrate : 192 kBit/s
Quality : High
Add ID3 tag : No
Command line compressor : C:\Program Files\FLAC\flac.exe
Additional command line options : -T "artist=%a" -T "title=%t" -T "album=%g" -T "date=%y" -T "tracknumber=%n" -T "genre=%m" -5 %s


TOC of the extracted CD

Track | Start | Length | Start sector | End sector
---------------------------------------------------------
1 | 0:00.00 | 1:19.29 | 0 | 5953
2 | 1:19.29 | 6:13.08 | 5954 | 33936
3 | 7:32.37 | 7:11.52 | 33937 | 66313
4 | 14:44.14 | 2:26.42 | 66314 | 77305
5 | 17:10.56 | 6:41.51 | 77306 | 107431
6 | 23:52.32 | 2:27.14 | 107432 | 118470
7 | 26:19.46 | 5:07.52 | 118471 | 141547
8 | 31:27.23 | 4:38.49 | 141548 | 162446
9 | 36:05.72 | 2:42.38 | 162447 | 174634
10 | 38:48.35 | 8:02.27 | 174635 | 210811
11 | 46:50.62 | 5:35.32 | 210812 | 235968
12 | 52:26.19 | 5:18.19 | 235969 | 259837
13 | 57:44.38 | 0:25.42 | 259838 | 261754
14 | 58:10.05 | 3:13.62 | 261755 | 276291
15 | 61:23.67 | 5:18.30 | 276292 | 300171


Track 1

Filename C:\Users\Dave\Desktop\CD\01 - The Ground Book (intro).wav

Pre-gap length 0:00:02.00

Peak level 99.8 %
Track quality 100.0 %
Test CRC 74FB76DD
Copy CRC 74FB76DD
Copy OK

Track 2

Filename C:\Users\Dave\Desktop\CD\02 - Fall To Rise.wav

Pre-gap length 0:00:00.01

Peak level 99.9 %
Track quality 100.0 %
Test CRC 432C6B6A
Copy CRC 432C6B6A
Copy OK

Track 3

Filename C:\Users\Dave\Desktop\CD\03 - Death Before Dishonour.wav

Pre-gap length 0:00:00.01

Peak level 99.9 %
Track quality 99.9 %
Test CRC FB0B2821
Copy CRC FB0B2821
Copy OK

Track 4

Filename C:\Users\Dave\Desktop\CD\04 - The Water Book.wav

Pre-gap length 0:00:00.01

Peak level 96.8 %
Track quality 100.0 %
Test CRC A8405DA1
Copy CRC A8405DA1
Copy OK

Track 5

Filename C:\Users\Dave\Desktop\CD\05 - The Endless Path.wav

Pre-gap length 0:00:00.02

Peak level 99.9 %
Track quality 100.0 %
Test CRC D0C69D45
Copy CRC D0C69D45
Copy OK

Track 6

Filename C:\Users\Dave\Desktop\CD\06 - The Wind Book.wav

Pre-gap length 0:00:00.01

Peak level 99.6 %
Track quality 100.0 %
Test CRC EFA8D24C
Copy CRC EFA8D24C
Copy OK

Track 7

Filename C:\Users\Dave\Desktop\CD\07 - Purity.wav

Pre-gap length 0:00:00.01

Peak level 99.8 %
Track quality 100.0 %
Test CRC 909DCAEE
Copy CRC 909DCAEE
Copy OK

Track 8

Filename C:\Users\Dave\Desktop\CD\08 - Rage Stained Blade.wav

Pre-gap length 0:00:00.11

Peak level 99.9 %
Track quality 100.0 %
Test CRC FEA9172C
Copy CRC FEA9172C
Copy OK

Track 9

Filename C:\Users\Dave\Desktop\CD\09 - The Fire Book.wav

Pre-gap length 0:00:00.01

Peak level 54.0 %
Track quality 100.0 %
Test CRC A01E38EC
Copy CRC A01E38EC
Copy OK

Track 10

Filename C:\Users\Dave\Desktop\CD\10 - Kusanagi.wav

Pre-gap length 0:00:00.01

Peak level 99.9 %
Track quality 100.0 %
Test CRC 407FE7D1
Copy CRC 407FE7D1
Copy OK

Track 11

Filename C:\Users\Dave\Desktop\CD\11 - Shin-Ken Part I.wav

Pre-gap length 0:00:01.11

Peak level 99.9 %
Track quality 100.0 %
Test CRC 12E96A23
Copy CRC 12E96A23
Copy OK

Track 12

Filename C:\Users\Dave\Desktop\CD\12 - Shin-Ken Part II.wav

Pre-gap length 0:00:00.01

Peak level 99.9 %
Track quality 100.0 %
Test CRC 3CDDA255
Copy CRC 3CDDA255
Copy OK

Track 13

Filename C:\Users\Dave\Desktop\CD\13 - The Void Book.wav

Pre-gap length 0:00:00.01

Peak level 75.3 %
Track quality 99.5 %
Test CRC 45EA3CE0
Copy CRC 45EA3CE0
Copy OK

Track 14

Filename C:\Users\Dave\Desktop\CD\14 - Japanese Poem.wav

Pre-gap length 0:00:00.26

Peak level 89.8 %
Track quality 100.0 %
Test CRC B0ABDABD
Copy CRC B0ABDABD
Copy OK

Track 15

Filename C:\Users\Dave\Desktop\CD\15 - Sword Of The Warrior (bonus track).wav

Pre-gap length 0:00:02.01

Peak level 99.8 %
Track quality 100.0 %
Test CRC AE95F62B
Copy CRC AE95F62B
Copy OK

No errors occurred

End of status report
FLAC (tracks+.cue); files.unn:
Чтобы увидеть скрытый текст Вам нужно нажать кнопочку "Открыть Hide"
У вас нет прав чтобы видеть скрытый текст, содержащийся здесь.
dying_inside вне форума  
Ответить с цитированием
Этот пользователь сказал Спасибо dying_inside за это полезное сообщение:
mezzo (12.09.2009)
Хайд открыли:
mezzo (12.09.2009), DreadMashine (10.09.2009), Макс-Мейхер (06.09.2009)
Ответ


Здесь присутствуют: 1 (пользователей: 0 , гостей: 1)
 
Опции темы
Опции просмотра

Ваши права в разделе
Вы не можете создавать новые темы
Вы не можете отвечать в темах
Вы не можете прикреплять вложения
Вы не можете редактировать свои сообщения

BB коды Вкл.
Смайлы Вкл.
[IMG] код Вкл.
HTML код Выкл.
Trackbacks are Выкл.
Pingbacks are Выкл.
Refbacks are Выкл.


Часовой пояс GMT +3, время: 15:06.