Вернуться   Нижегородский Форум Друзей > Обсуждаем и качаем > Музыка > Lossless > Hard Клуб > Death Metal Lossless
Забыли пароль? Регистрация



Death Metal Lossless Death Metal / Brutal Death / Technical Death / Melodic Death


Ответ
 
Опции темы Опции просмотра
Старый 18.08.2009, 19:29   #1
Power User
 
Аватар для toshi
 
Регистрация: 23.09.2008
Адрес: Сормово
Пол: M
Провайдер: Эр-Телеком
Сообщений: 1,304
Поблагодарил: 661
Поблагодарили 2,880 раз в 1,044 сообщениях
Открыли хайд :
0 в этом сообщении
3,238 Всего


По умолчанию [Melodic Death Metal / Sludge] Ghost Brigade

[Для просмотра данной ссылки нужно зарегистрироваться]

Исполнитель: Ghost Brigade
Альбом: Isolation Songs
Дата выпуска: 2009
Жанр: Sludge
Формат: FLAC (tracks)
Битрейт: 835-1064 kbps
Продолжительность: 01:00:44

Треклист:
01. Suffocated [00:05:28]
02. My Heart Is A Tomb [00:04:27]
03. Into The Black Light [00:05:27]
04. Lost In A Loop [00:05:03]
05. 22:22 - Nihil [00:05:48]
06. Architect Of New Beginnings [00:04:32]
07. Birth [00:09:01]
08. Concealed Revulsions [00:05:30]
09. Secrets Of The Earth [00:05:04]
10. A Storm Inside [00:06:20]
11. Liar [00:04:00]


Отчёт EAC:

Exact Audio Copy V0.99 prebeta 3 from 28. July 2007

EAC extraction logfile from 29. July 2009, 17:37

Ghost Brigade / Isolation Songs

Used drive : HL-DT-STDVDRAM GSA-H12L Adapter: 2 ID: 0

Read mode : Secure
Utilize accurate stream : Yes
Defeat audio cache : Yes
Make use of C2 pointers : No

Read offset correction : 667
Overread into Lead-In and Lead-Out : No
Fill up missing offset samples with silence : Yes
Delete leading and trailing silent blocks : No
Null samples used in CRC calculations : Yes
Used interface : Native Win32 interface for Win NT & 2000
Gap handling : Appended to previous track

Used output format : User Defined Encoder
Selected bitrate : 128 kBit/s
Quality : High
Add ID3 tag : No
Command line compressor : C:\Program Files (x86)\Exact Audio Copy\flac.exe
Additional command line options : -8 -A tukey(0.25) -A gauss(0.1875) -b 4096 -V -T "artist=%a" -T "title=%t" -T "album=%g" -T "date=%y" -T "tracknumber=%n" -T "genre=%m" %s --sector-align


TOC of the extracted CD

Track | Start | Length | Start sector | End sector
---------------------------------------------------------
1 | 0:00.00 | 5:28.69 | 0 | 24668
2 | 5:28.69 | 4:27.63 | 24669 | 44756
3 | 9:56.57 | 5:27.33 | 44757 | 69314
4 | 15:24.15 | 5:03.30 | 69315 | 92069
5 | 20:27.45 | 5:48.09 | 92070 | 118178
6 | 26:15.54 | 4:32.51 | 118179 | 138629
7 | 30:48.30 | 9:01.02 | 138630 | 179206
8 | 39:49.32 | 5:30.10 | 179207 | 203966
9 | 45:19.42 | 5:04.24 | 203967 | 226790
10 | 50:23.66 | 6:20.39 | 226791 | 255329
11 | 56:44.30 | 4:00.00 | 255330 | 273329


Track 1

Filename E:\Seedit\Ghost Brigade - 2009 - Isolation songs flac\01 - Suffocated.wav

Pre-gap length 0:00:02.00

Peak level 98.8 %
Track quality 100.0 %
Test CRC 57E7B908
Copy CRC 57E7B908
Copy OK

Track 2

Filename E:\Seedit\Ghost Brigade - 2009 - Isolation songs flac\02 - My Heart Is A Tomb.wav

Peak level 98.8 %
Track quality 100.0 %
Test CRC DB45A151
Copy CRC DB45A151
Copy OK

Track 3

Filename E:\Seedit\Ghost Brigade - 2009 - Isolation songs flac\03 - Into The Black Light.wav

Peak level 98.8 %
Track quality 99.9 %
Test CRC 8AEE9ABA
Copy CRC 8AEE9ABA
Copy OK

Track 4

Filename E:\Seedit\Ghost Brigade - 2009 - Isolation songs flac\04 - Lost In A Loop.wav

Peak level 98.8 %
Track quality 100.0 %
Test CRC 5931CCF8
Copy CRC 5931CCF8
Copy OK

Track 5

Filename E:\Seedit\Ghost Brigade - 2009 - Isolation songs flac\05 - 22-22 - Nihil.wav

Peak level 98.8 %
Track quality 100.0 %
Test CRC 48D9C23C
Copy CRC 48D9C23C
Copy OK

Track 6

Filename E:\Seedit\Ghost Brigade - 2009 - Isolation songs flac\06 - Architect Of New Beginnings.wav

Peak level 98.8 %
Track quality 100.0 %
Test CRC 4C92487C
Copy CRC 4C92487C
Copy OK

Track 7

Filename E:\Seedit\Ghost Brigade - 2009 - Isolation songs flac\07 - Birth.wav

Peak level 98.8 %
Track quality 100.0 %
Test CRC 81AB031C
Copy CRC 81AB031C
Copy OK

Track 8

Filename E:\Seedit\Ghost Brigade - 2009 - Isolation songs flac\08 - Concealed Revulsions.wav

Peak level 98.8 %
Track quality 100.0 %
Test CRC 456AB859
Copy CRC 456AB859
Copy OK

Track 9

Filename E:\Seedit\Ghost Brigade - 2009 - Isolation songs flac\09 - Secrets Of The Earth.wav

Peak level 98.8 %
Track quality 100.0 %
Test CRC 2BED430D
Copy CRC 2BED430D
Copy OK

Track 10

Filename E:\Seedit\Ghost Brigade - 2009 - Isolation songs flac\10 - A Storm Inside.wav

Peak level 98.8 %
Track quality 99.9 %
Test CRC 670BECB3
Copy CRC 670BECB3
Copy OK

Track 11

Filename E:\Seedit\Ghost Brigade - 2009 - Isolation songs flac\11 - Liar.wav

Peak level 98.8 %
Track quality 100.0 %
Test CRC E8ACB886
Copy CRC E8ACB886
Copy OK

No errors occurred

End of status report


[Для просмотра данной ссылки нужно зарегистрироваться]
__________________
Подключайтесь к ДОМ.РУ!!!:
[Для просмотра данной ссылки нужно зарегистрироваться]
т.п. "Токио"
toshi вне форума  
Ответить с цитированием
Эти 3 пользователя(ей) сказали Спасибо toshi за это полезное сообщение:
ACHERON (19.08.2009), dying_inside (18.08.2009), Циничная сволочь (22.08.2009)
Ответ


Здесь присутствуют: 1 (пользователей: 0 , гостей: 1)
 
Опции темы
Опции просмотра

Ваши права в разделе
Вы не можете создавать новые темы
Вы не можете отвечать в темах
Вы не можете прикреплять вложения
Вы не можете редактировать свои сообщения

BB коды Вкл.
Смайлы Вкл.
[IMG] код Вкл.
HTML код Выкл.
Trackbacks are Выкл.
Pingbacks are Выкл.
Refbacks are Выкл.


Часовой пояс GMT +3, время: 13:39.