Вернуться   Нижегородский Форум Друзей > Обсуждаем и качаем > Музыка > Lossless > Hard Клуб > Grindcore Lossless
Забыли пароль? Регистрация



Grindcore Lossless Grindcore / Goregrind / Pornogrind / Shitgrind / Crustgrind / Deathgrind / Noisegrind


Ответ
 
Опции темы Опции просмотра
Старый 01.12.2008, 15:59   #1
Дружище
 
Аватар для xRaiderx
 
Регистрация: 03.10.2007
Адрес: Дзержинск
Пол: M
Сообщений: 719
Поблагодарил: 528
Поблагодарили 1,766 раз в 549 сообщениях
Открыли хайд :
0 в этом сообщении
373 Всего


По умолчанию [Death Metal / Grindcore] Misery Index



Альбом: Discordia
Дата выпуска: 2006
Жанр: Death Metal / Grindcore
Формат: FLAC (tracks)
Битрейт: 1005-1047 kbps
Продолжительность: 00:33:10

Треклист:
01. Unmarked Graves [00:04:47]
02. Conquistadores [00:03:36]
03. Outsourcing Jehovah [00:02:52]
04. Breathing Pestilence [00:03:14]
05. Meet Reality [00:02:27]
06. Sensory Deprivation [00:04:14]
07. The Meduse Stare [00:02:14]
08. Dystopian Nightmares [00:02:53]
09. Discordia [00:04:27]
10. Pandemican [00:02:20]

Отчёт EAC:

Exact Audio Copy V0.99 prebeta 4 from 23. January 2008

EAC extraction logfile from 16. September 2008, 20:55

Misery Index / Discordia

Used drive : PIONEER DVD-RW DVR-109 Adapter: 1 ID: 0

Read mode : Secure
Utilize accurate stream : Yes
Defeat audio cache : Yes
Make use of C2 pointers : No

Read offset correction : 48
Overread into Lead-In and Lead-Out : No
Fill up missing offset samples with silence : Yes
Delete leading and trailing silent blocks : No
Null samples used in CRC calculations : No
Used interface : Native Win32 interface for Win NT & 2000
Gap handling : Appended to previous track

Used output format : Internal WAV Routines
Sample format : 44.100 Hz; 16 Bit; Stereo


TOC of the extracted CD

Track | Start | Length | Start sector | End sector
---------------------------------------------------------
1 | 0:00.00 | 4:47.02 | 0 | 21526
2 | 4:47.02 | 3:36.56 | 21527 | 37782
3 | 8:23.58 | 2:52.49 | 37783 | 50731
4 | 11:16.32 | 3:14.72 | 50732 | 65353
5 | 14:31.29 | 2:27.32 | 65354 | 76410
6 | 16:58.61 | 4:14.53 | 76411 | 95513
7 | 21:13.39 | 2:14.55 | 95514 | 105618
8 | 23:28.19 | 2:53.72 | 105619 | 118665
9 | 26:22.16 | 4:27.52 | 118666 | 138742
10 | 30:49.68 | 2:20.35 | 138743 | 149277


Track 1

Filename F:\[-Ripped CDs-]\Misery Index - Discordia - 01 - Unmarked Graves.wav

Pre-gap length 0:00:02.00

Peak level 99.7 %
Track quality 100.0 %
Test CRC 42FA4E3D
Copy CRC 42FA4E3D
Accurately ripped (confidence 2) [5CCD5E77]
Copy OK

Track 2

Filename F:\[-Ripped CDs-]\Misery Index - Discordia - 02 - Conquistadores.wav

Peak level 99.8 %
Track quality 100.0 %
Test CRC A261F92D
Copy CRC A261F92D
Accurately ripped (confidence 2) [83B68661]
Copy OK

Track 3

Filename F:\[-Ripped CDs-]\Misery Index - Discordia - 03 - Outsourcing Jehovah.wav

Peak level 99.9 %
Track quality 99.9 %
Test CRC C120AB89
Copy CRC C120AB89
Accurately ripped (confidence 2) [B15424F0]
Copy OK

Track 4

Filename F:\[-Ripped CDs-]\Misery Index - Discordia - 04 - Breathing Pestilence.wav

Pre-gap length 0:00:00.01

Peak level 100.0 %
Track quality 100.0 %
Test CRC E3C413F6
Copy CRC E3C413F6
Accurately ripped (confidence 2) [15744C4A]
Copy OK

Track 5

Filename F:\[-Ripped CDs-]\Misery Index - Discordia - 05 - Meet Reality.wav

Peak level 99.7 %
Track quality 99.9 %
Test CRC DA78456D
Copy CRC DA78456D
Accurately ripped (confidence 2) [4984DEF4]
Copy OK

Track 6

Filename F:\[-Ripped CDs-]\Misery Index - Discordia - 06 - Sensory Deprivation.wav

Peak level 99.7 %
Track quality 99.9 %
Test CRC 7D40747B
Copy CRC 7D40747B
Accurately ripped (confidence 2) [A4CF7838]
Copy OK

Track 7

Filename F:\[-Ripped CDs-]\Misery Index - Discordia - 07 - The Meduse Stare.wav

Peak level 99.9 %
Track quality 100.0 %
Test CRC AA652B0E
Copy CRC AA652B0E
Accurately ripped (confidence 2) [9480F762]
Copy OK

Track 8

Filename F:\[-Ripped CDs-]\Misery Index - Discordia - 08 - Dystopian Nightmares.wav

Pre-gap length 0:00:00.19

Peak level 99.7 %
Track quality 100.0 %
Test CRC BFC3C987
Copy CRC BFC3C987
Accurately ripped (confidence 2) [1B54CD65]
Copy OK

Track 9

Filename F:\[-Ripped CDs-]\Misery Index - Discordia - 09 - Discordia.wav

Pre-gap length 0:00:00.02

Peak level 99.7 %
Track quality 100.0 %
Test CRC 4A872228
Copy CRC 4A872228
Accurately ripped (confidence 2) [6B10AF06]
Copy OK

Track 10

Filename F:\[-Ripped CDs-]\Misery Index - Discordia - 10 - Pandemican.wav

Peak level 100.0 %
Track quality 99.9 %
Test CRC 2CC21E22
Copy CRC 2CC21E22
Accurately ripped (confidence 2) [17A54A04]
Copy OK


All tracks accurately ripped

No errors occurred

End of status report


[Для просмотра данной ссылки нужно зарегистрироваться]
xRaiderx вне форума  
Ответить с цитированием
Эти 4 пользователя(ей) сказали Спасибо xRaiderx за это полезное сообщение:
dying_inside (01.12.2008), Qwenn (01.12.2008), toshi (01.12.2008), Wanish666 (01.12.2008)
Старый 01.12.2008, 16:01   #2
Дружище
 
Аватар для xRaiderx
 
Регистрация: 03.10.2007
Адрес: Дзержинск
Пол: M
Сообщений: 719
Поблагодарил: 528
Поблагодарили 1,766 раз в 549 сообщениях
Открыли хайд :
0 в этом сообщении
373 Всего


По умолчанию



Альбом: Traitors
Дата выпуска: 2008
Жанр: Death Metal / Grindcore
Формат: FLAC (tracks)
Битрейт: 1047-1107 kbps
Продолжительность: 00:37:26

Треклист:
01. We Never Come In Peace [00:01:59]
02. Theocracy [00:04:31]
03. Partisans Of Grief [00:03:36]
04. Traitors [00:02:23]
05. Ghosts Of Catalonia [00:05:00]
06. Occupation [00:04:43]
07. Ruling Class Cancelled [00:02:07]
08. The Arbiter [00:02:02]
09. American Idolatry [00:02:19]
10. Thrown Into The Sun [00:03:58]
11. Black Sites [00:04:44]

Отчёт EAC:

Exact Audio Copy V0.99 prebeta 4 from 23. January 2008

EAC extraction logfile from 1. October 2008, 22:39

Misery Index / Traitors

Used drive : PIONEER DVD-RW DVR-109 Adapter: 1 ID: 0

Read mode : Secure
Utilize accurate stream : Yes
Defeat audio cache : Yes
Make use of C2 pointers : No

Read offset correction : 48
Overread into Lead-In and Lead-Out : No
Fill up missing offset samples with silence : Yes
Delete leading and trailing silent blocks : No
Null samples used in CRC calculations : No
Used interface : Native Win32 interface for Win NT & 2000
Gap handling : Appended to previous track

Used output format : Internal WAV Routines
Sample format : 44.100 Hz; 16 Bit; Stereo


TOC of the extracted CD

Track | Start | Length | Start sector | End sector
---------------------------------------------------------
1 | 0:00.00 | 1:59.32 | 0 | 8956
2 | 1:59.32 | 4:31.09 | 8957 | 29290
3 | 6:30.41 | 3:36.41 | 29291 | 45531
4 | 10:07.07 | 2:23.10 | 45532 | 56266
5 | 12:30.17 | 5:00.40 | 56267 | 78806
6 | 17:30.57 | 4:43.32 | 78807 | 100063
7 | 22:14.14 | 2:07.30 | 100064 | 109618
8 | 24:21.44 | 2:02.51 | 109619 | 118819
9 | 26:24.20 | 2:19.40 | 118820 | 129284
10 | 28:43.60 | 3:58.53 | 129285 | 147187
11 | 32:42.38 | 4:44.19 | 147188 | 168506


Track 1

Filename F:\[-Ripped CDs-]\Misery Index - Traitors - 01 - We Never Come In Peace.wav

Pre-gap length 0:00:02.00

Peak level 100.0 %
Track quality 100.0 %
Copy CRC 3FDBAF34
Track not present in AccurateRip database
Copy OK

Track 2

Filename F:\[-Ripped CDs-]\Misery Index - Traitors - 02 - Theocracy.wav

Peak level 100.0 %
Track quality 100.0 %
Copy CRC 9351166E
Track not present in AccurateRip database
Copy OK

Track 3

Filename F:\[-Ripped CDs-]\Misery Index - Traitors - 03 - Partisans Of Grief.wav

Pre-gap length 0:00:00.03

Peak level 100.0 %
Track quality 100.0 %
Copy CRC 8B04AF79
Track not present in AccurateRip database
Copy OK

Track 4

Filename F:\[-Ripped CDs-]\Misery Index - Traitors - 04 - Traitors.wav

Peak level 100.0 %
Track quality 99.9 %
Copy CRC FC7B8EF7
Track not present in AccurateRip database
Copy OK

Track 5

Filename F:\[-Ripped CDs-]\Misery Index - Traitors - 05 - Ghosts Of Catalonia.wav

Pre-gap length 0:00:00.02

Peak level 100.0 %
Track quality 100.0 %
Copy CRC 95EA81E4
Track not present in AccurateRip database
Copy OK

Track 6

Filename F:\[-Ripped CDs-]\Misery Index - Traitors - 06 - Occupation.wav

Peak level 100.0 %
Track quality 100.0 %
Copy CRC 1EA0DFEF
Track not present in AccurateRip database
Copy OK

Track 7

Filename F:\[-Ripped CDs-]\Misery Index - Traitors - 07 - Ruling Class Cancelled.wav

Peak level 100.0 %
Track quality 100.0 %
Copy CRC 4C212C87
Track not present in AccurateRip database
Copy OK

Track 8

Filename F:\[-Ripped CDs-]\Misery Index - Traitors - 08 - The Arbiter.wav

Peak level 100.0 %
Track quality 100.0 %
Copy CRC 4F385053
Track not present in AccurateRip database
Copy OK

Track 9

Filename F:\[-Ripped CDs-]\Misery Index - Traitors - 09 - American Idolatry.wav

Peak level 100.0 %
Track quality 100.0 %
Copy CRC 62C74975
Track not present in AccurateRip database
Copy OK

Track 10

Filename F:\[-Ripped CDs-]\Misery Index - Traitors - 10 - Thrown Into The Sun.wav

Peak level 100.0 %
Track quality 100.0 %
Copy CRC 8B85A9ED
Track not present in AccurateRip database
Copy OK

Track 11

Filename F:\[-Ripped CDs-]\Misery Index - Traitors - 11 - Black Sites.wav

Peak level 100.0 %
Track quality 99.9 %
Copy CRC FE8EF5AB
Track not present in AccurateRip database
Copy OK


None of the tracks are present in the AccurateRip database

No errors occurred

End of status report


[Для просмотра данной ссылки нужно зарегистрироваться]
[Для просмотра данной ссылки нужно зарегистрироваться]
[Для просмотра данной ссылки нужно зарегистрироваться]
xRaiderx вне форума  
Ответить с цитированием
Эти 5 пользователя(ей) сказали Спасибо xRaiderx за это полезное сообщение:
dying_inside (01.12.2008), Qwenn (01.12.2008), toshi (01.12.2008), Wanish666 (01.12.2008)
Ответ


Здесь присутствуют: 1 (пользователей: 0 , гостей: 1)
 
Опции темы
Опции просмотра

Ваши права в разделе
Вы не можете создавать новые темы
Вы не можете отвечать в темах
Вы не можете прикреплять вложения
Вы не можете редактировать свои сообщения

BB коды Вкл.
Смайлы Вкл.
[IMG] код Вкл.
HTML код Выкл.
Trackbacks are Выкл.
Pingbacks are Выкл.
Refbacks are Выкл.


Часовой пояс GMT +3, время: 14:31.