Вернуться   Нижегородский Форум Друзей > Обсуждаем и качаем > Музыка > Lossless > Hard Клуб > Grindcore Lossless
Забыли пароль? Регистрация



Grindcore Lossless Grindcore / Goregrind / Pornogrind / Shitgrind / Crustgrind / Deathgrind / Noisegrind


Ответ
 
Опции темы Опции просмотра
Старый 28.12.2008, 14:46   #1
Продюсер
 
Аватар для Maniac
 
Регистрация: 19.09.2007
Пол: M
Провайдер: Dial-up
Сообщений: 3,323
Поблагодарил: 1,757
Поблагодарили 4,783 раз в 1,407 сообщениях
Открыли хайд :
2 в этом сообщении
5,329 Всего


По умолчанию [Death Metal / Grindcore] Obliterate

Obliterate - Tangled Ways



Genre: Death Metal/Grindcore
Country: Slovakia
Year: 2003
Label: Extremist Records
Format: flac (tracks) + cue +log
Size: 213.8 Mb

Tracklist:
1. Compression 02:30
2. Antiracism 00:59
3. Lost Man 02:43
4. Against Your Will 03:34
5. ... Just Another Gadget 02:58
6. Parasites in the Name of spirit... 03:25
7. Maliciously Selfish 02:52
8. For Trouble 02:18
9. Skin (remix - Testimony cover) 05:55
=============================
Total playing time: 27:25

EAC logfile:
Exact Audio Copy V0.99 prebeta 3 from 28. July 2007

EAC extraction logfile from 6. October 2008, 21:06

Obliterate / Tangled Ways

Used drive : BENQ DVD LS DW1655 Adapter: 0 ID: 1

Read mode : Secure
Utilize accurate stream : Yes
Defeat audio cache : Yes
Make use of C2 pointers : No

Read offset correction : 618
Overread into Lead-In and Lead-Out : No
Fill up missing offset samples with silence : Yes
Delete leading and trailing silent blocks : No
Null samples used in CRC calculations : No
Used interface : Native Win32 interface for Win NT & 2000
Gap handling : Appended to previous track

Used output format : User Defined Encoder
Selected bitrate : 768 kBit/s
Quality : High
Add ID3 tag : No
Command line compressor : C:\Program Files\Exact Audio Copy\FLAC\FLAC.EXE
Additional command line options : -6 -V -T "ARTIST=%a" -T "TITLE=%t" -T "ALBUM=%g" -T "DATE=%y" -T "TRACKNUMBER=%n" -T "GENRE=%m" -T "COMMENT=%e" %s -o %d


TOC of the extracted CD

Track | Start | Length | Start sector | End sector
---------------------------------------------------------
1 | 0:00.00 | 2:30.17 | 0 | 11266
2 | 2:30.17 | 0:59.47 | 11267 | 15738
3 | 3:29.64 | 2:43.27 | 15739 | 27990
4 | 6:13.16 | 3:36.35 | 27991 | 44225
5 | 9:49.51 | 2:58.39 | 44226 | 57614
6 | 12:48.15 | 3:26.19 | 57615 | 73083
7 | 16:14.34 | 2:53.67 | 73084 | 86125
8 | 19:08.26 | 2:22.00 | 86126 | 96775
9 | 21:30.26 | 5:55.50 | 96776 | 123450


Track 1

Filename C:\Ripped Cds\Obliterate - Tangled Ways\Obliterate - Tangled Ways - 01 - Compression.wav

Pre-gap length 0:00:02.00

Peak level 97.7 %
Track quality 100.0 %
Test CRC 9DD79D41
Copy CRC 9DD79D41
Track not present in AccurateRip database
Copy OK

Track 2

Filename C:\Ripped Cds\Obliterate - Tangled Ways\Obliterate - Tangled Ways - 02 - Antiracism.wav

Pre-gap length 0:00:02.67

Peak level 100.0 %
Track quality 100.0 %
Test CRC F900DA59
Copy CRC F900DA59
Track not present in AccurateRip database
Copy OK

Track 3

Filename C:\Ripped Cds\Obliterate - Tangled Ways\Obliterate - Tangled Ways - 03 - Lost man.wav

Pre-gap length 0:00:02.03

Peak level 100.0 %
Track quality 99.9 %
Test CRC C75DC9BC
Copy CRC C75DC9BC
Track not present in AccurateRip database
Copy OK

Track 4

Filename C:\Ripped Cds\Obliterate - Tangled Ways\Obliterate - Tangled Ways - 04 - Against your will.wav

Pre-gap length 0:00:01.74

Peak level 100.0 %
Track quality 100.0 %
Test CRC D385D9F4
Copy CRC D385D9F4
Track not present in AccurateRip database
Copy OK

Track 5

Filename C:\Ripped Cds\Obliterate - Tangled Ways\Obliterate - Tangled Ways - 05 - ...just another gadget.wav

Pre-gap length 0:00:03.18

Peak level 98.7 %
Track quality 100.0 %
Test CRC B3442E96
Copy CRC B3442E96
Track not present in AccurateRip database
Copy OK

Track 6

Filename C:\Ripped Cds\Obliterate - Tangled Ways\Obliterate - Tangled Ways - 06 - Parasites in the name of spirit.wav

Pre-gap length 0:00:02.26

Peak level 97.7 %
Track quality 100.0 %
Test CRC ACF29EAC
Copy CRC ACF29EAC
Track not present in AccurateRip database
Copy OK

Track 7

Filename C:\Ripped Cds\Obliterate - Tangled Ways\Obliterate - Tangled Ways - 07 - Maliciously selfish.wav

Pre-gap length 0:00:03.00

Peak level 97.7 %
Track quality 100.0 %
Test CRC FB6B8F2D
Copy CRC FB6B8F2D
Track not present in AccurateRip database
Copy OK

Track 8

Filename C:\Ripped Cds\Obliterate - Tangled Ways\Obliterate - Tangled Ways - 08 - For Trouble.wav

Pre-gap length 0:00:02.18

Peak level 97.7 %
Track quality 100.0 %
Test CRC 2888217C
Copy CRC 2888217C
Track not present in AccurateRip database
Copy OK

Track 9

Filename C:\Ripped Cds\Obliterate - Tangled Ways\Obliterate - Tangled Ways - 09 - Skin (remix).wav

Pre-gap length 0:00:02.47

Peak level 99.9 %
Track quality 99.9 %
Test CRC 696FC9AC
Copy CRC 696FC9AC
Track not present in AccurateRip database
Copy OK


None of the tracks are present in the AccurateRip database

No errors occurred

End of status report

share.nnov
Чтобы увидеть скрытый текст Вам нужно нажать кнопочку "Открыть Hide"
У вас нет прав чтобы видеть скрытый текст, содержащийся здесь.
__________________
Maniac вне форума  
Ответить с цитированием
Эти 3 пользователя(ей) сказали Спасибо Maniac за это полезное сообщение:
ACHERON (28.12.2008), dying_inside (28.12.2008), heavybrother (28.12.2008)
Хайд открыли:
ACHERON (28.12.2008), dying_inside (28.12.2008)
Ответ


Здесь присутствуют: 1 (пользователей: 0 , гостей: 1)
 
Опции темы
Опции просмотра

Ваши права в разделе
Вы не можете создавать новые темы
Вы не можете отвечать в темах
Вы не можете прикреплять вложения
Вы не можете редактировать свои сообщения

BB коды Вкл.
Смайлы Вкл.
[IMG] код Вкл.
HTML код Выкл.
Trackbacks are Выкл.
Pingbacks are Выкл.
Refbacks are Выкл.


Часовой пояс GMT +3, время: 14:51.