Вернуться   Нижегородский Форум Друзей > Обсуждаем и качаем > Музыка > Lossless > Hard Клуб > Grindcore Lossless
Забыли пароль? Регистрация



Grindcore Lossless Grindcore / Goregrind / Pornogrind / Shitgrind / Crustgrind / Deathgrind / Noisegrind


Ответ
 
Опции темы Опции просмотра
Старый 28.01.2009, 12:41   #1
Дружище
 
Аватар для xRaiderx
 
Регистрация: 03.10.2007
Адрес: Дзержинск
Пол: M
Сообщений: 719
Поблагодарил: 528
Поблагодарили 1,766 раз в 549 сообщениях
Открыли хайд :
0 в этом сообщении
373 Всего


По умолчанию [Grindcore] Nasum

Альбом: Inhale/Exhale
Дата выпуска: 1998
Жанр: Grindcore
Формат: FLAC (image+cue)
Битрейт: 1075 kbps
Продолжительность: 00:45:09

Треклист:

01. This Is... [00:00:24]
02. The Masked Face [00:01:51]
03. Digging In [00:00:18]
04. Time To Act! [00:01:21]
05. Disdain And Contempt [00:00:32]
06. I See Lies [00:01:10]
07. Inhale/Exhale [00:01:35]
08. Too Naked To Distort [00:00:48]
09. There's No Escape [00:01:40]
10. The Rest Is Over [00:01:09]
11. Disappointed [00:01:09]
12. Lagg Om! [00:00:18]
13. You're Obsolete [00:01:11]
14. Tested [00:01:20]
15. Shapeshifter [00:01:09]
16. Feed Them, Kill Them, Skin Them [00:00:50]
17. When Science Fails [00:01:49]
18. Closing In [00:01:00]
19. The World That You Made [00:00:57]
20. The System Has Failed Again [00:00:33]
21. For What Cause? [00:01:01]
22. Fullmatad [00:00:54]
23. Screwed [00:00:41]
24. Shaping The End [00:02:22]
25. The New Firing Squad [00:00:58]
26. No Sign Of Improvement [00:01:46]
27. My Philosophy [00:00:56]
28. I'm Not Silent [00:00:49]
29. The Breathing Furnace [00:01:21]
30. Information Is Free [00:01:27]
31. Burning Inside [00:01:33]
32. A Request For Guidance [00:00:47]
33. Grey [00:01:04]
34. Worldcraft [00:02:34]
35. It's Never Too Late [00:00:33]
36. Du Ar Bevakad [00:01:09]
37. Blinded [00:00:39]
38. Can De Lach [00:03:14]


Отчёт EAC:

Exact Audio Copy V0.99 prebeta 3 from 28. July 2007

Отчёт EAC об извлечении, выполненном 22. апреля 2008, 13:44

Nasum / Inhale/Exhale

Дисковод: HL-DT-STDVD-RAM GSA-H22L Adapter: 0 ID: 0

Режим чтения : Достоверность
Использование точного потока : Да
Отключение кэша аудио : Да
Использование указателей C2 : Нет

Коррекция смещения при чтении : 102
Способность читать области Lead-in и Lead-out : Да
Заполнение пропущенных сэмплов тишиной : Да
Удаление блоков с тишиной в начале и конце : Нет
При вычислениях CRC использовались нулевые сэмплы : Нет
Интерфейс : Установленный внешний ASPI-интерфейс

Выходной формат : Внутренние WAV-операции
Формат сэмплов : 44.100 Гц; 16 бит; стерео


TOC извлечённого CD

Трек | Старт | Длительность | Начальный сектор | Конечный сектор
---------------------------------------------------------------------
1 | 0:00.00 | 0:24.17 | 0 | 1816
2 | 0:24.17 | 1:51.35 | 1817 | 10176
3 | 2:15.52 | 0:18.55 | 10177 | 11581
4 | 2:34.32 | 1:21.10 | 11582 | 17666
5 | 3:55.42 | 0:32.08 | 17667 | 20074
6 | 4:27.50 | 1:10.65 | 20075 | 25389
7 | 5:38.40 | 1:35.02 | 25390 | 32516
8 | 7:13.42 | 0:48.58 | 32517 | 36174
9 | 8:02.25 | 1:40.25 | 36175 | 43699
10 | 9:42.50 | 1:09.10 | 43700 | 48884
11 | 10:51.60 | 1:09.07 | 48885 | 54066
12 | 12:00.67 | 0:18.10 | 54067 | 55426
13 | 12:19.02 | 1:11.35 | 55427 | 60786
14 | 13:30.37 | 1:20.53 | 60787 | 66839
15 | 14:51.15 | 1:09.67 | 66840 | 72081
16 | 16:01.07 | 0:50.15 | 72082 | 75846
17 | 16:51.22 | 1:49.40 | 75847 | 84061
18 | 18:40.62 | 1:00.48 | 84062 | 88609
19 | 19:41.35 | 0:57.05 | 88610 | 92889
20 | 20:38.40 | 0:33.57 | 92890 | 95421
21 | 21:12.22 | 1:01.58 | 95422 | 100054
22 | 22:14.05 | 0:54.07 | 100055 | 104111
23 | 23:08.12 | 0:41.33 | 104112 | 107219
24 | 23:49.45 | 2:22.60 | 107220 | 117929
25 | 26:12.30 | 0:58.55 | 117930 | 122334
26 | 27:11.10 | 1:46.52 | 122335 | 130336
27 | 28:57.62 | 0:56.58 | 130337 | 134594
28 | 29:54.45 | 0:49.35 | 134595 | 138304
29 | 30:44.05 | 1:21.27 | 138305 | 144406
30 | 32:05.32 | 1:27.55 | 144407 | 150986
31 | 33:33.12 | 1:33.35 | 150987 | 157996
32 | 35:06.47 | 0:47.13 | 157997 | 161534
33 | 35:53.60 | 1:04.49 | 161535 | 166383
34 | 36:58.34 | 2:34.21 | 166384 | 177954
35 | 39:32.55 | 0:33.45 | 177955 | 180474
36 | 40:06.25 | 1:09.20 | 180475 | 185669
37 | 41:15.45 | 0:39.62 | 185670 | 188656
38 | 41:55.32 | 3:14.28 | 188657 | 203234


Характеристики диапазона извлечения и сообщения об ошибках

Выбранный диапазон

Имя файла D:\Upload\Nasum - Inhale-Exhale\Nasum - Inhale Exhale.wav

Пиковый уровень 100.0 %
Качество диапазона 100.0 %
CRC копии FE545595
Копирование... OK

Ошибок не произошло

Конец отчёта


[Для просмотра данной ссылки нужно зарегистрироваться] [Для просмотра данной ссылки нужно зарегистрироваться] [Для просмотра данной ссылки нужно зарегистрироваться] [Для просмотра данной ссылки нужно зарегистрироваться]
xRaiderx вне форума  
Ответить с цитированием
Этот пользователь сказал Спасибо xRaiderx за это полезное сообщение:
niuniu (28.01.2009)
Старый 28.01.2009, 12:42   #2
Дружище
 
Аватар для xRaiderx
 
Регистрация: 03.10.2007
Адрес: Дзержинск
Пол: M
Сообщений: 719
Поблагодарил: 528
Поблагодарили 1,766 раз в 549 сообщениях
Открыли хайд :
0 в этом сообщении
373 Всего


По умолчанию

Альбом: Human 2.0
Дата выпуска: 2000
Жанр: Death Metal
Формат: FLAC (image+cue)
Битрейт: 1081 kbps
Продолжительность: 00:38:29

Треклист:

01. Mass Hypnosis [00:01:05]
02. A Welcome Breeze of Stinking Air [00:01:40]
03. Fatal Search [00:00:28]
04. Shadows [00:02:24]
05. Corrosion [00:02:07]
06. Multinational Murderers Network [00:02:18]
07. Parting is Such Sweet Sorrow [00:00:41]
08. The Black Swarm [00:01:23]
09. Sixteen [00:01:51]
10. Alarm [00:02:12]
11. Detonator [00:01:37]
12. Gargoyles and Grotesques [00:01:01]
13. Nar Dagarna [00:01:00]
14. Resistance [00:02:32]
15. The Idiot Parade [00:01:33]
16. Den Svarta Fanan [00:00:59]
17. We're Nothing But Pawns [00:00:51]
18. Defragmentation [00:01:42]
19. Sick System [00:00:19]
20. The Professional League [00:02:38]
21. Old and Tired? [00:01:12]
22. Words to Die For [00:02:03]
23. Riot [00:00:40]
24. The Meaningless Trial [00:01:02]
25. Sometimes Dead is Better [00:02:58]



Отчёт EAC:

Exact Audio Copy V0.99 prebeta 3 from 28. July 2007

Отчёт EAC об извлечении, выполненном 22. апреля 2008, 14:04

Nasum / Human 2.0

Дисковод: HL-DT-STDVD-RAM GSA-H22L Adapter: 0 ID: 0

Режим чтения : Достоверность
Использование точного потока : Да
Отключение кэша аудио : Да
Использование указателей C2 : Нет

Коррекция смещения при чтении : 102
Способность читать области Lead-in и Lead-out : Да
Заполнение пропущенных сэмплов тишиной : Да
Удаление блоков с тишиной в начале и конце : Нет
При вычислениях CRC использовались нулевые сэмплы : Нет
Интерфейс : Установленный внешний ASPI-интерфейс

Выходной формат : Внутренние WAV-операции
Формат сэмплов : 44.100 Гц; 16 бит; стерео


TOC извлечённого CD

Трек | Старт | Длительность | Начальный сектор | Конечный сектор
---------------------------------------------------------------------
1 | 0:00.00 | 1:05.05 | 0 | 4879
2 | 1:05.05 | 1:40.12 | 4880 | 12391
3 | 2:45.17 | 0:28.65 | 12392 | 14556
4 | 3:14.07 | 2:24.73 | 14557 | 25429
5 | 5:39.05 | 2:08.00 | 25430 | 35029
6 | 7:47.05 | 2:18.47 | 35030 | 45426
7 | 10:05.52 | 0:41.30 | 45427 | 48531
8 | 10:47.07 | 1:23.40 | 48532 | 54796
9 | 12:10.47 | 1:51.60 | 54797 | 63181
10 | 14:02.32 | 2:12.43 | 63182 | 73124
11 | 16:15.00 | 1:37.70 | 73125 | 80469
12 | 17:52.70 | 1:01.65 | 80470 | 85109
13 | 18:54.60 | 1:00.60 | 85110 | 89669
14 | 19:55.45 | 2:33.00 | 89670 | 101144
15 | 22:28.45 | 1:33.05 | 101145 | 108124
16 | 24:01.50 | 0:59.60 | 108125 | 112609
17 | 25:01.35 | 0:51.12 | 112610 | 116446
18 | 25:52.47 | 1:42.35 | 116447 | 124131
19 | 27:35.07 | 0:19.33 | 124132 | 125589
20 | 27:54.40 | 2:38.50 | 125590 | 137489
21 | 30:33.15 | 1:12.60 | 137490 | 142949
22 | 31:46.00 | 2:03.15 | 142950 | 152189
23 | 33:49.15 | 0:40.17 | 152190 | 155206
24 | 34:29.32 | 1:02.40 | 155207 | 159896
25 | 35:31.72 | 2:58.15 | 159897 | 173261


Характеристики диапазона извлечения и сообщения об ошибках

Выбранный диапазон

Имя файла D:\Upload\Nasum - Human 2.0\Nasum - Human 2.0.wav

Пиковый уровень 91.9 %
Качество диапазона 99.9 %
CRC копии 7AC2E66F
Копирование... OK

Ошибок не произошло

Конец отчёта


[Для просмотра данной ссылки нужно зарегистрироваться] [Для просмотра данной ссылки нужно зарегистрироваться] [Для просмотра данной ссылки нужно зарегистрироваться] [Для просмотра данной ссылки нужно зарегистрироваться]
xRaiderx вне форума  
Ответить с цитированием
Этот пользователь сказал Спасибо xRaiderx за это полезное сообщение:
niuniu (28.01.2009)
Ответ


Здесь присутствуют: 1 (пользователей: 0 , гостей: 1)
 
Опции темы
Опции просмотра

Ваши права в разделе
Вы не можете создавать новые темы
Вы не можете отвечать в темах
Вы не можете прикреплять вложения
Вы не можете редактировать свои сообщения

BB коды Вкл.
Смайлы Вкл.
[IMG] код Вкл.
HTML код Выкл.
Trackbacks are Выкл.
Pingbacks are Выкл.
Refbacks are Выкл.


Часовой пояс GMT +3, время: 06:13.