Вернуться   Нижегородский Форум Друзей > Обсуждаем и качаем > Музыка > Lossless > Hard Клуб > Grindcore Lossless
Забыли пароль? Регистрация



Grindcore Lossless Grindcore / Goregrind / Pornogrind / Shitgrind / Crustgrind / Deathgrind / Noisegrind
Описание темы:Troy Sanders of Mastodon


Ответ
 
Опции темы Опции просмотра
Старый 14.04.2009, 11:20   #1
Power User
 
Аватар для toshi
 
Регистрация: 23.09.2008
Адрес: Сормово
Пол: M
Провайдер: Эр-Телеком
Сообщений: 1,304
Поблагодарил: 661
Поблагодарили 2,880 раз в 1,044 сообщениях
Открыли хайд :
0 в этом сообщении
3,238 Всего


По умолчанию [Grindcore] Social Infestation

[Для просмотра данной ссылки нужно зарегистрироваться]

Исполнитель: Social Infestation
Альбом: Lasciate Ogni Speranza
Дата выпуска: 2004
Жанр: Grindcore
Формат: FLAC (tracks)
Битрейт: 619-1081 kbps
Продолжительность: 00:22:49

Треклист:
01. Gort Load [00:00:46]
02. Helpless/Hopeless [00:02:49]
03. Mother Mary [00:00:44]
04. Be All You Can Be [00:00:33]
05. Black [00:01:17]
06. So [00:02:17]
07. Extreme Contempt [00:01:31]
08. Tickle Me Emo [00:00:38]
09. The James Byrd Theme [00:00:31]
10. The Only Thing I Suffer From Is A Headache From Listening To Your Bullshit [00:02:12]
11. Roy G Biv [00:02:05]
12. The Problem [00:00:19]
13. Reverend Anus [00:00:45]
14. Zippergate [00:01:11]
15. Fuck All Critics [00:01:17]
16. Kill Or Be Killed [00:01:10]
17. Stop [00:02:38]


Отчёт EAC:

EAC extraction logfile from 7. February 2008, 15:26 for CD
Social Infestation / Lasciate Ogni Speranza

Used drive : HP DVD Writer 740b Adapter: 5 ID: 0
Read mode : Secure with NO C2, accurate stream, NO disable cache
Read offset correction : 102
Overread into Lead-In and Lead-Out : No

Used output format : C:\Program Files\Exact Audio Copy\flac.exe. (User Defined Encoder)
192 kBit/s
Additional command line options : -V -5 -T "artist=%a" -T "title=%t" -T "album=%g" -T "date=%y" -T "tracknumber=%n" -T "genre=%m" %s

Other options :
Fill up missing offset samples with silence : Yes
Delete leading and trailing silent blocks : No
Installed external ASPI interface


Track 1
Filename C:\Program Files\Exact Audio Copy\Profiles\(01) Gort Load - Social Infestation.wav

Peak level 73.9 %
Track quality 100.0 %
Test CRC 914F5793
Copy CRC 914F5793
Copy OK

Track 2
Filename C:\Program Files\Exact Audio Copy\Profiles\(02) Helpless,Hopeless - Social Infestation.wav

Peak level 99.9 %
Track quality 99.9 %
Test CRC D7AA8D54
Copy CRC D7AA8D54
Copy OK

Track 3
Filename C:\Program Files\Exact Audio Copy\Profiles\(03) Mother Mary - Social Infestation.wav

Peak level 100.0 %
Track quality 100.0 %
Test CRC 575BF7FF
Copy CRC 575BF7FF
Copy OK

Track 4
Filename C:\Program Files\Exact Audio Copy\Profiles\(04) Be All You Can Be - Social Infestation.wav

Peak level 100.0 %
Track quality 100.0 %
Test CRC 8CCD504A
Copy CRC 8CCD504A
Copy OK

Track 5
Filename C:\Program Files\Exact Audio Copy\Profiles\(05) Black - Social Infestation.wav

Peak level 100.0 %
Track quality 99.8 %
Test CRC 6615AD24
Copy CRC 6615AD24
Copy OK

Track 6
Filename C:\Program Files\Exact Audio Copy\Profiles\(06) So - Social Infestation.wav

Peak level 99.9 %
Track quality 100.0 %
Test CRC 4DBD5636
Copy CRC 4DBD5636
Copy OK

Track 7
Filename C:\Program Files\Exact Audio Copy\Profiles\(07) Extreme Contempt - Social Infestation.wav

Peak level 99.9 %
Track quality 100.0 %
Test CRC 7809BA4B
Copy CRC 7809BA4B
Copy OK

Track 8
Filename C:\Program Files\Exact Audio Copy\Profiles\(08) Tickle Me Emo - Social Infestation.wav

Peak level 100.0 %
Track quality 100.0 %
Test CRC B7C6B3B0
Copy CRC B7C6B3B0
Copy OK

Track 9
Filename C:\Program Files\Exact Audio Copy\Profiles\(09) The James Byrd Theme - Social Infestation.wav

Peak level 100.0 %
Track quality 100.0 %
Test CRC 8429EFF9
Copy CRC 8429EFF9
Copy OK

Track 10
Filename C:\Program Files\Exact Audio Copy\Profiles\(10) The Only Thing I Suffer From Is A Headache From Listening To Your Bullshit - Social Infestation.wav

Peak level 100.0 %
Track quality 100.0 %
Test CRC 3C7BC462
Copy CRC 3C7BC462
Copy OK

Track 11
Filename C:\Program Files\Exact Audio Copy\Profiles\(11) Roy G Biv - Social Infestation.wav

Peak level 100.0 %
Track quality 100.0 %
Test CRC 1B78B807
Copy CRC 1B78B807
Copy OK

Track 12
Filename C:\Program Files\Exact Audio Copy\Profiles\(12) The Problem - Social Infestation.wav

Peak level 99.4 %
Track quality 100.0 %
Test CRC 4449A1AF
Copy CRC 4449A1AF
Copy OK

Track 13
Filename C:\Program Files\Exact Audio Copy\Profiles\(13) Reverend Anus - Social Infestation.wav

Peak level 100.0 %
Track quality 100.0 %
Test CRC 385949A1
Copy CRC 385949A1
Copy OK

Track 14
Filename C:\Program Files\Exact Audio Copy\Profiles\(14) Zippergate - Social Infestation.wav

Peak level 100.0 %
Track quality 100.0 %
Test CRC D78F5871
Copy CRC D78F5871
Copy OK

Track 15
Filename C:\Program Files\Exact Audio Copy\Profiles\(15) Fuck All Critics - Social Infestation.wav

Peak level 100.0 %
Track quality 100.0 %
Test CRC 71FB0BBC
Copy CRC 71FB0BBC
Copy OK

Track 16
Filename C:\Program Files\Exact Audio Copy\Profiles\(16) Kill Or Be Killed - Social Infestation.wav

Peak level 99.9 %
Track quality 100.0 %
Test CRC 626E1CAD
Copy CRC 626E1CAD
Copy OK

Track 17
Filename C:\Program Files\Exact Audio Copy\Profiles\(17) Stop - Social Infestation.wav

Peak level 99.5 %
Track quality 99.9 %
Test CRC 2059841E
Copy CRC 2059841E
Copy OK

No errors occured


End of status report


[Для просмотра данной ссылки нужно зарегистрироваться]
__________________
Подключайтесь к ДОМ.РУ!!!:
[Для просмотра данной ссылки нужно зарегистрироваться]
т.п. "Токио"
toshi вне форума  
Ответить с цитированием
Эти 4 пользователя(ей) сказали Спасибо toshi за это полезное сообщение:
dying_inside (14.04.2009), kot (14.04.2009), Qwenn (14.04.2009), Tjodmar (23.04.2009)
Старый 14.04.2009, 22:23   #2
Заслуженные
 
Регистрация: 17.08.2006
Пол: M
Провайдер: ВТ
Сообщений: 1,187
Поблагодарил: 621
Поблагодарили 1,621 раз в 557 сообщениях
Открыли хайд :
0 в этом сообщении
9 Всего


По умолчанию

ой Troy Sanders , зачет
спасибо
__________________
[Для просмотра данной ссылки нужно зарегистрироваться]
kot вне форума  
Ответить с цитированием
Ответ


Здесь присутствуют: 1 (пользователей: 0 , гостей: 1)
 
Опции темы
Опции просмотра

Ваши права в разделе
Вы не можете создавать новые темы
Вы не можете отвечать в темах
Вы не можете прикреплять вложения
Вы не можете редактировать свои сообщения

BB коды Вкл.
Смайлы Вкл.
[IMG] код Вкл.
HTML код Выкл.
Trackbacks are Выкл.
Pingbacks are Выкл.
Refbacks are Выкл.


Часовой пояс GMT +3, время: 13:39.