Вернуться   Нижегородский Форум Друзей > Обсуждаем и качаем > Музыка > Lossless > Hard Клуб > Grindcore Lossless
Забыли пароль? Регистрация



Grindcore Lossless Grindcore / Goregrind / Pornogrind / Shitgrind / Crustgrind / Deathgrind / Noisegrind


Ответ
 
Опции темы Опции просмотра
Старый 19.04.2009, 19:52   #1
Morning comes too early and nighttime falls too late...
 
Аватар для heavybrother
 
Регистрация: 30.09.2007
Адрес: Nizhny Novgorod region
Пол: M
Провайдер: ВТ
Сообщений: 646
Поблагодарил: 582
Поблагодарили 1,228 раз в 451 сообщениях
Открыли хайд :
6 в этом сообщении
742 Всего


По умолчанию [Technical Death Metal / Grindcore] Viraemia

VIRAEMIA - VIRAEMIA (EP) - 2009



YEAR: 2009
STYLE: Technical death metal, Grindcore
FORMAT: FLAC (Image + Cue)
SIZE: 173.9 Mb
COUNTRY: Phoenix, Arizona, USA



Track Listing
01. Disseminated Intravascular Coagul (4:10)
02. Necrotizing Fasciitis (3:21)
03. Cancrum Oris (3:59)
04. Pit Of Pestilence (3:28)
05. The Prodromal Phase (4:02)
*************************
Total playing time: 19:00



The Band:
* Tony Martinez - vocals
* Josh Hernandez - guitar
* Scott Plummer - bass
* Michael Collins - drums

EAC log:
Exact Audio Copy V0.99 prebeta 4 from 23. January 2008

EAC extraction logfile from 18. April 2009, 14:08

Viraemia / Viraemia

Used drive : Optiarc DVD RW AD-7203S Adapter: 1 ID: 0

Read mode : Secure
Utilize accurate stream : Yes
Defeat audio cache : Yes
Make use of C2 pointers : No

Read offset correction : 48
Overread into Lead-In and Lead-Out : No
Fill up missing offset samples with silence : Yes
Delete leading and trailing silent blocks : No
Null samples used in CRC calculations : Yes
Used interface : Native Win32 interface for Win NT & 2000

Used output format : User Defined Encoder
Selected bitrate : 1024 kBit/s
Quality : High
Add ID3 tag : Yes
Command line compressor : C:\Program Files\Exact Audio Copy\Flac\flac.exe
Additional command line options : -6 -V %s


TOC of the extracted CD

Track | Start | Length | Start sector | End sector
---------------------------------------------------------
1 | 0:00.00 | 4:09.63 | 0 | 18737
2 | 4:09.63 | 3:20.70 | 18738 | 33807
3 | 7:30.58 | 3:59.21 | 33808 | 51753
4 | 11:30.04 | 3:28.14 | 51754 | 67367
5 | 14:58.18 | 4:02.15 | 67368 | 85532


Range status and errors

Selected range

Filename D:\Мои Документы\Моя музыка\--==[Tecnhical Death, Brutal Death]==--\Viraemia\Flac\Viraemia - Viraemia.wav

Peak level 99.9 %
Range quality 100.0 %
Copy CRC 838FB7DF
Copy OK

No errors occurred

End of status report
Download share.nnov.ru:
Чтобы увидеть скрытый текст Вам нужно нажать кнопочку "Открыть Hide"
У вас нет прав чтобы видеть скрытый текст, содержащийся здесь.
Внимание!:
Все материалы, представленные в этом релизе, предназначены только для ознакомительный целей. В соответствие с ФЗ "Об авторском праве и смежных правах", Вы должны удалить все вышеуказанные трэки со своего жесткого диска и иных носителей сразу после ознакомления.
__________________
[Для просмотра данной ссылки нужно зарегистрироваться]
heavybrother вне форума  
Ответить с цитированием
Эти 6 пользователя(ей) сказали Спасибо heavybrother за это полезное сообщение:
Abigail189 (21.04.2009), dying_inside (19.04.2009), Fetus In Fetus (19.04.2009), Maniac (19.04.2009), Qwenn (20.04.2009), SuffoCore (22.04.2009)
Хайд открыли:
SuffoCore (22.04.2009), Abigail189 (21.04.2009), Qwenn (20.04.2009), kot (20.04.2009), dying_inside (19.04.2009), Maniac (19.04.2009)
Старый 19.04.2009, 19:55   #2
Morning comes too early and nighttime falls too late...
 
Аватар для heavybrother
 
Регистрация: 30.09.2007
Адрес: Nizhny Novgorod region
Пол: M
Провайдер: ВТ
Сообщений: 646
Поблагодарил: 582
Поблагодарили 1,228 раз в 451 сообщениях
Открыли хайд :
0 в этом сообщении
742 Всего


По умолчанию

пока закинул в Grindcore, кто послушает, отпишитесь, на предмет стиля
__________________
[Для просмотра данной ссылки нужно зарегистрироваться]
heavybrother вне форума  
Ответить с цитированием
Старый 19.04.2009, 23:35   #3
Знакомый
 
Регистрация: 16.08.2007
Пол: М
Провайдер: Сэнди
Сообщений: 57
Поблагодарил: 241
Поблагодарили 28 раз в 14 сообщениях
Открыли хайд :
0 в этом сообщении
0 Всего


По умолчанию

А можно это чудо в 320kbps, пожалуйста!
Fetus In Fetus вне форума  
Ответить с цитированием
Старый 22.04.2009, 13:04   #4
Знакомый
 
Аватар для SuffoCore
 
Регистрация: 16.04.2009
Адрес: НН, Щербинки
Пол: M
Провайдер: ВТ
Сообщений: 41
Поблагодарил: 125
Поблагодарили 33 раз в 14 сообщениях
Открыли хайд :
0 в этом сообщении
0 Всего


По умолчанию

heavybrother, ОГРОМНОЕ СПАСИБО ЗА РЕЛИЗ!!!
Музыка в лучших традициях Beneath The Massacre и Brain Drill
Думаю этому релизу не место в грайндкоре
SuffoCore вне форума  
Ответить с цитированием
Старый 22.04.2009, 19:48   #5
Morning comes too early and nighttime falls too late...
 
Аватар для heavybrother
 
Регистрация: 30.09.2007
Адрес: Nizhny Novgorod region
Пол: M
Провайдер: ВТ
Сообщений: 646
Поблагодарил: 582
Поблагодарили 1,228 раз в 451 сообщениях
Открыли хайд :
0 в этом сообщении
742 Всего


По умолчанию

хз, Brutal technical death скорее всего это, где что пишут, на одном ресурсе говорят, что Mathcore
__________________
[Для просмотра данной ссылки нужно зарегистрироваться]
heavybrother вне форума  
Ответить с цитированием
Ответ


Здесь присутствуют: 1 (пользователей: 0 , гостей: 1)
 
Опции темы
Опции просмотра

Ваши права в разделе
Вы не можете создавать новые темы
Вы не можете отвечать в темах
Вы не можете прикреплять вложения
Вы не можете редактировать свои сообщения

BB коды Вкл.
Смайлы Вкл.
[IMG] код Вкл.
HTML код Выкл.
Trackbacks are Выкл.
Pingbacks are Выкл.
Refbacks are Выкл.


Часовой пояс GMT +3, время: 05:22.