Вернуться   Нижегородский Форум Друзей > Обсуждаем и качаем > Музыка > Lossless > Hard Клуб > Grindcore Lossless
Забыли пароль? Регистрация



Grindcore Lossless Grindcore / Goregrind / Pornogrind / Shitgrind / Crustgrind / Deathgrind / Noisegrind


Ответ
 
Опции темы Опции просмотра
Старый 29.05.2009, 22:34   #1
Продюсер
 
Аватар для Maniac
 
Регистрация: 19.09.2007
Пол: M
Провайдер: Dial-up
Сообщений: 3,323
Поблагодарил: 1,757
Поблагодарили 4,783 раз в 1,407 сообщениях
Открыли хайд :
3 в этом сообщении
5,329 Всего


По умолчанию [Grindcore] Leng Tch'e

Leng Tch'e - Death By A Thousand Cuts


Стиль/Genre: Grindcore
Страна/Country: Belgium (Ghent, East Flanders)
Лэйбл/Lable: The Spew Records
Год/Year: 2002
Качество/Quality: FLAС (Image + .Cue + Log)
Размер/Size: 223 MB (All Scans Including)

Tracklist:
1. Initiate Murder Sequence
2. Strangled by Underwear
3. Hypocriscene
4. I Know Where You've Shit Last Summer
5. FUCK Censorship
6. Inferior Superiorism
7. Get Rid of the Rock In Your Name
8. Cockporn
9. The Regular Know-It-All
10. Chasms
11. Schizotrendic
12. The Scheme
13. Straight Outta Boerecote II
14. Mosh of the Clowns
15. Human Ignorance
16. Graveyard Shift
17. Delusions of Grandeur
18. T.P.
19. (Hidden Track)
=============
Total Play Time: 31:22


Отчёт EAC:
Exact Audio Copy V0.99 prebeta 5 from 4. May 2009

Отчёт EAC об извлечении, выполненном 18. мая 2009, 16:37

Leng Tch'e / Death By A Thousand Cuts

Дисковод: Optiarc DVD RW AD-7203S Adapter: 2 ID: 1

Режим чтения : Достоверность
Использование точного потока : Да
Отключение кэша аудио : Да
Использование указателей C2 : Нет

Коррекция смещения при чтении : 48
Способность читать области Lead-in и Lead-out : Нет
Заполнение пропущенных сэмплов тишиной : Да
Удаление блоков с тишиной в начале и конце : Нет
При вычислениях CRC использовались нулевые сэмплы : Да
Интерфейс : Установленный внешний ASPI-интерфейс

Выходной формат : Пользовательский кодировщик
Выбранный битрейт : 1024 kBit/s
Качество : Высокий
Добавление ID3-тэга : Да
Утилита сжатия : C:\Program Files\Exact Audio Copy\Flac\flac.exe
Дополнительные параметры : -8 -V -T "ARTIST=%a" -T "TITLE=%t" -T "ALBUM=%g" -T "DATE=%y" -T "TRACKNUMBER=%n" -T "GENRE=%m" -T "COMMENT=EAC FLAC -8" %s


TOC извлечённого CD

Трек | Старт | Длительность | Начальный сектор | Конечный сектор
---------------------------------------------------------------------
1 | 0:00.00 | 1:01.16 | 0 | 4590
2 | 1:01.16 | 1:23.13 | 4591 | 10828
3 | 2:24.29 | 1:55.55 | 10829 | 19508
4 | 4:20.09 | 3:29.22 | 19509 | 35205
5 | 7:49.31 | 0:48.72 | 35206 | 38877
6 | 8:38.28 | 0:47.33 | 38878 | 42435
7 | 9:25.61 | 1:54.40 | 42436 | 51025
8 | 11:20.26 | 1:57.28 | 51026 | 59828
9 | 13:17.54 | 1:24.03 | 59829 | 66131
10 | 14:41.57 | 0:50.44 | 66132 | 69925
11 | 15:32.26 | 2:12.60 | 69926 | 79885
12 | 17:45.11 | 1:07.12 | 79886 | 84922
13 | 18:52.23 | 1:31.49 | 84923 | 91796
14 | 20:23.72 | 1:24.37 | 91797 | 98133
15 | 21:48.34 | 2:21.64 | 98134 | 108772
16 | 24:10.23 | 0:55.45 | 108773 | 112942
17 | 25:05.68 | 1:14.48 | 112943 | 118540
18 | 26:20.41 | 5:01.36 | 118541 | 141151


Характеристики диапазона извлечения и сообщения об ошибках

Выбранный диапазон

Имя файла D:\оформление\Leng Tch'e - (2002) Death By A Thousand Cuts\Leng Tch'e - Death By A Thousand Cuts.wav

Пиковый уровень 97.7 %
Качество диапазона 100.0 %
CRC копии 18DECCF7
Копирование... OK

Ошибок не произошло


AccurateRip: сводка

Трек 1 нет в базе данных
Трек 2 нет в базе данных
Трек 3 нет в базе данных
Трек 4 нет в базе данных
Трек 5 нет в базе данных
Трек 6 нет в базе данных
Трек 7 нет в базе данных
Трек 8 нет в базе данных
Трек 9 нет в базе данных
Трек 10 нет в базе данных
Трек 11 нет в базе данных
Трек 12 нет в базе данных
Трек 13 нет в базе данных
Трек 14 нет в базе данных
Трек 15 нет в базе данных
Трек 16 нет в базе данных
Трек 17 нет в базе данных
Трек 18 нет в базе данных

Ни одного трека нет в базе AccurateRip

Конец отчёта


share.nnov (2 части)
Чтобы увидеть скрытый текст Вам нужно нажать кнопочку "Открыть Hide"
У вас нет прав чтобы видеть скрытый текст, содержащийся здесь.
Maniac вне форума  
Ответить с цитированием
Эти 3 пользователя(ей) сказали Спасибо Maniac за это полезное сообщение:
dying_inside (29.05.2009), Producer (15.10.2010), Qwenn (31.05.2009)
Хайд открыли:
xdenverx (28.08.2009), Qwenn (31.05.2009), dying_inside (29.05.2009)
Ответ


Здесь присутствуют: 1 (пользователей: 0 , гостей: 1)
 
Опции темы
Опции просмотра

Ваши права в разделе
Вы не можете создавать новые темы
Вы не можете отвечать в темах
Вы не можете прикреплять вложения
Вы не можете редактировать свои сообщения

BB коды Вкл.
Смайлы Вкл.
[IMG] код Вкл.
HTML код Выкл.
Trackbacks are Выкл.
Pingbacks are Выкл.
Refbacks are Выкл.


Часовой пояс GMT +3, время: 05:09.