Вернуться   Нижегородский Форум Друзей > Обсуждаем и качаем > Музыка > Lossless > Hard Клуб > Русский Рок Lossless
Забыли пароль? Регистрация




Ответ
 
Опции темы Опции просмотра
Старый 31.10.2008, 14:55   #1
Знакомый
 
Аватар для aMqpuTaMuH
 
Регистрация: 17.11.2007
Пол: М
Провайдер: АДС FTTB
Сообщений: 38
Поблагодарил: 7
Поблагодарили 11 раз в 3 сообщениях
Открыли хайд :
0 в этом сообщении
34 Всего


По умолчанию [Русский Рок] Ундервуд


Ундервуд - Все, кого ты так сильно любил

Жанр: Рок
Год выпуска диска: 2008
Производитель диска: Россия
Битрейт аудио: lossless
Продолжительность: 01:04:06
Тип рипа: APE (image+.cue)

Трэклист:

01 - Ода к радости
02 - Мама, я нашел нефть
03 - Чехов это я
04 - Чёрный Пьеро
05 - Мария и снег
06 - Химия и жизнь
07 - Дитя моё
08 - Татьянин день
09 - Очень хочется в Советский Союз
10 - Год за годом
11 - Всех, кого ты так сильно любил
12 - Смерть в Венеции

Бонус:
13 - Моя любовь (Макаревич)
14 - Моя любовь (демо)
15 - Мой маленький мозг
16 - Простите пацаны...

Отчет::
Exact Audio Copy V0.99 prebeta 4 from 23. January 2008

Отчёт EAC об извлечении, выполненном 20. октября 2008, 19:42

Ундервуд / Все кого ты так сильно любил

Дисковод: _NEC DVD_RW ND-3540A Adapter: 1 ID: 0

Режим чтения : Достоверность
Использование точного потока : Да
Отключение кэша аудио : Да
Использование указателей C2 : Да

Коррекция смещения при чтении : 48
Способность читать области Lead-in и Lead-out : Нет
Заполнение пропущенных сэмплов тишиной : Да
Удаление блоков с тишиной в начале и конце : Нет
При вычислениях CRC использовались нулевые сэмплы : Да
Интерфейс : Установленный внешний ASPI-интерфейс

Выходной формат : Внутренние WAV-операции
Формат сэмплов : 44.100 Гц; 16 бит; стерео

TOC извлечённого CD

Трек | Старт | Длительность | Начальный сектор | Конечный сектор
---------------------------------------------------------------------
1 | 0:00.00 | 3:24.34 | 0 | 15333
2 | 3:24.34 | 5:25.27 | 15334 | 39735
3 | 8:49.61 | 2:53.18 | 39736 | 52728
4 | 11:43.04 | 5:02.55 | 52729 | 75433
5 | 16:45.59 | 3:48.51 | 75434 | 92584
6 | 20:34.35 | 3:57.32 | 92585 | 110391
7 | 24:31.67 | 3:41.56 | 110392 | 127022
8 | 28:13.48 | 3:10.32 | 127023 | 141304
9 | 31:24.05 | 2:59.43 | 141305 | 154772
10 | 34:23.48 | 6:46.07 | 154773 | 185229
11 | 41:09.55 | 3:54.55 | 185230 | 202834
12 | 45:04.35 | 3:20.47 | 202835 | 217881
13 | 48:25.07 | 4:37.04 | 217882 | 238660
14 | 53:02.11 | 4:29.71 | 238661 | 258906
15 | 57:32.07 | 3:01.06 | 258907 | 272487
16 | 60:33.13 | 3:40.36 | 272488 | 289023
17 | 66:45.49 | 6:58.74 | 300424 | 331847

Характеристики диапазона извлечения и сообщения об ошибках

Выбранный диапазон

Имя файла D:\music\Ундервуд\Все кого ты так сильно любил\Ундервуд - Все кого ты так сильно любил.wav

Пиковый уровень 99.9 %
Качество диапазона 100.0 %
CRC копии 570D85D1
Копирование... OK

Ошибок не произошло

Конец отчёта

[Для просмотра данной ссылки нужно зарегистрироваться]
[Для просмотра данной ссылки нужно зарегистрироваться]

Последний раз редактировалось aMqpuTaMuH; 31.10.2008 в 22:54.
aMqpuTaMuH вне форума  
Ответить с цитированием
Эти 4 пользователя(ей) сказали Спасибо aMqpuTaMuH за это полезное сообщение:
BIOlan (05.11.2008), Ishtar (31.10.2008), joo (31.10.2008), p0z1t1v3 (04.11.2008)
Старый 31.10.2008, 15:33   #2
FRINGEфэн %)
 
Аватар для Ishtar
 
Регистрация: 01.06.2008
Адрес: Печёры
Пол: Ж
Провайдер: Эр-Телеком
Сообщений: 2,036
Поблагодарил: 2,870
Поблагодарили 5,709 раз в 1,571 сообщениях
Открыли хайд :
0 в этом сообщении
7,301 Всего


По умолчанию

aMqpuTaMuH, будь другом, поведай ламеру - после извлечения из архива каким образом всё это прослушать можно?
__________________
Ishtar вне форума  
Ответить с цитированием
Старый 01.11.2008, 11:39   #3
R.G.Sky
 
Регистрация: 16.01.2008
Адрес: Дзержинск
Пол: M
Провайдер: ВТ
Сообщений: 85
Поблагодарил: 3
Поблагодарили 75 раз в 21 сообщениях
Открыли хайд :
0 в этом сообщении
1 Всего


По умолчанию

Ishtar,
читай [Для просмотра данной ссылки нужно зарегистрироваться]
stiven вне форума  
Ответить с цитированием
Эти 2 пользователя(ей) сказали Спасибо stiven за это полезное сообщение:
Ishtar (01.11.2008), joo (03.11.2008)
Старый 03.11.2008, 13:47   #4
Приятель
 
Аватар для joo
 
Регистрация: 21.11.2006
Адрес: Россия
Пол: М
Провайдер: АДС FTTB
Сообщений: 246
Поблагодарил: 439
Поблагодарили 102 раз в 27 сообщениях
Открыли хайд :
0 в этом сообщении
217 Всего


По умолчанию

а нельзя ли в мп3 выложить ? очень хочется
__________________
что делаеть тебя счастливым?
joo вне форума  
Ответить с цитированием
Старый 09.11.2008, 11:01   #5
R.G.Sky
 
Регистрация: 16.01.2008
Адрес: Дзержинск
Пол: M
Провайдер: ВТ
Сообщений: 85
Поблагодарил: 3
Поблагодарили 75 раз в 21 сообщениях
Открыли хайд :
0 в этом сообщении
1 Всего


По умолчанию

joo,
а что мешает скачать в lossless и потом сделать мп3?Траффик то все равно нижегородский.
stiven вне форума  
Ответить с цитированием
Ответ


Здесь присутствуют: 1 (пользователей: 0 , гостей: 1)
 
Опции темы
Опции просмотра

Ваши права в разделе
Вы не можете создавать новые темы
Вы не можете отвечать в темах
Вы не можете прикреплять вложения
Вы не можете редактировать свои сообщения

BB коды Вкл.
Смайлы Вкл.
[IMG] код Вкл.
HTML код Выкл.
Trackbacks are Выкл.
Pingbacks are Выкл.
Refbacks are Выкл.


Часовой пояс GMT +3, время: 06:26.