Вернуться   Нижегородский Форум Друзей > Обсуждаем и качаем > Музыка > Lossless > Hard Клуб > Русский Рок Lossless
Забыли пароль? Регистрация




Ответ
 
Опции темы Опции просмотра
Старый 31.05.2009, 20:08   #1
Хороший Друг
 
Аватар для Sandy E51
 
Регистрация: 10.11.2008
Адрес: дома
Пол: M
Провайдер: Билайн
Сообщений: 402
Поблагодарил: 36
Поблагодарили 1,816 раз в 354 сообщениях
Открыли хайд :
0 в этом сообщении
7,582 Всего


Счастье [Brit-Rock] Нулевой Меридиан

Нулевой Меридиан 5 МИНУТ ДО SТАРТА


Жанр: Brit-Rock
Год выпуска диска: 2009
Производитель диска: Россия
Аудио кодек: FLAC
Тип рипа: image+.cue
Битрейт аудио: lossless
Продолжительность: 37:35

Трэклист:
01. 5 минут до sтарта 02:33:74
02. По проводам 03:16:76
03. В надежде на встречу 02:49:50
04. Не мои слова 03:04:32
05. 2 дня 03:39:70
06. Больные мысли 03:17:97
07. Герои 03:48:44
08. 8-05 03:15:65
09. Далеко 03:41:56
10. Коктели и соки 03:42:96
11. На песке 04:24:52

Отчёт EAC
Спойлер:
Exact Audio Copy V0.99 prebeta 4 from 23. January 2008

Отчёт EAC об извлечении, выполненном 26. мая 2009, 22:48

Нулевой меридиан / Нулевой меридиан

Дисковод: MATSHITADVD-RAM UJ-840S Adapter: 1 ID: 0

Режим чтения : Достоверность
Использование точного потока : Да
Отключение кэша аудио : Да
Использование указателей C2 : Нет

Коррекция смещения при чтении : 102
Способность читать области Lead-in и Lead-out : Нет
Заполнение пропущенных сэмплов тишиной : Да
Удаление блоков с тишиной в начале и конце : Нет
При вычислениях CRC использовались нулевые сэмплы : Да
Интерфейс : Установленный внешний ASPI-интерфейс

Выходной формат : Внутренние WAV-операции
Формат сэмплов : 44.100 Гц; 16 бит; стерео

TOC извлечённого CD

Трек | Старт | Длительность | Начальный сектор | Конечный сектор
---------------------------------------------------------------------
1 | 0:00.00 | 2:33.56 | 0 | 11530
2 | 2:33.56 | 3:16.57 | 11531 | 26287
3 | 5:50.38 | 2:49.38 | 26288 | 39000
4 | 8:40.01 | 3:04.24 | 39001 | 52824
5 | 11:44.25 | 3:39.53 | 52825 | 69302
6 | 15:24.03 | 3:17.73 | 69303 | 84150
7 | 18:42.01 | 3:48.33 | 84151 | 101283
8 | 22:30.34 | 3:15.49 | 101284 | 115957
9 | 25:46.08 | 3:41.42 | 115958 | 132574
10 | 29:27.50 | 3:42.72 | 132575 | 149296
11 | 33:10.47 | 4:24.39 | 149297 | 169135

Характеристики диапазона извлечения и сообщения об ошибках

Выбранный диапазон

Имя файла C:\Documents and Settings\dima\Рабочий стол\Нулевой меридиан\Нулевой меридиан - Нулевой меридиан.wav

Пиковый уровень 96.3 %
Качество диапазона 100.0 %
CRC копии 2C129C7E
Копирование... OK

Ошибок не произошло

Конец отчёта
за скачку спасибо Smartboy

[Для просмотра данной ссылки нужно зарегистрироваться]
[Для просмотра данной ссылки нужно зарегистрироваться]
Sandy E51 вне форума  
Ответить с цитированием
Эти 2 пользователя(ей) сказали Спасибо Sandy E51 за это полезное сообщение:
barsik33 (31.05.2009), PaschaX (02.06.2009)
Ответ


Здесь присутствуют: 1 (пользователей: 0 , гостей: 1)
 
Опции темы
Опции просмотра

Ваши права в разделе
Вы не можете создавать новые темы
Вы не можете отвечать в темах
Вы не можете прикреплять вложения
Вы не можете редактировать свои сообщения

BB коды Вкл.
Смайлы Вкл.
[IMG] код Вкл.
HTML код Выкл.
Trackbacks are Выкл.
Pingbacks are Выкл.
Refbacks are Выкл.


Часовой пояс GMT +3, время: 06:40.