Вернуться   Нижегородский Форум Друзей > Обсуждаем и качаем > Видео > Документальные фильмы
Забыли пароль? Регистрация




Ответ
 
Опции темы Опции просмотра
Старый 28.06.2010, 17:25   #1
 
Аватар для alexrocker
 
Регистрация: 29.11.2008
Адрес: Матушка-Рассея
Пол: M
Провайдер: Стрим
Сообщений: 4,487
Поблагодарил: 3,286
Поблагодарили 15,307 раз в 3,171 сообщениях
Открыли хайд :
18 в этом сообщении
28,975 Всего


Восклицание Брат 10 лет спустя (2007, Документальный) SATRip

Брат 10 лет спустя



Режиссер: Алена Серебрякова

Фильм рассказывает о съёмке Брат, Брат 2. О возникавших проблемах , взлётах, падениях и о трагичной судьбе Бодрова младшего...


Кадры:
















Качество:

SATRip
Format : AVI
Format/Info : Audio Video Interleave
File size : 559 MiB
Duration : 45mn 0s
Overall bit rate : 1 736 Kbps
Writing library : VirtualDub build 28292/release
Video #0
ID : 0
Format : MPEG-4 Visual
Format settings, BVOP : No
Format settings, QPel : No
Format settings, GMC : No warppoints
Format settings, Matrix : Default (H.263)
Codec ID : DX50
Codec ID/Hint : DivX 5
Duration : 45mn 0s
Bit rate : 1 598 Kbps
Width : 708 pixels
Height : 564 pixels
Display aspect ratio : 5:4
Frame rate : 25.000 fps
Resolution : 24 bits
Colorimetry : 4:2:0
Scan type : Progressive
Bits/(Pixel*Frame) : 0.160
Stream size : 515 MiB (92%)
Writing library : DivX 5.2.1 (WaffleDay) (UTC 2004-09-08)
Audio #1
ID : 1
Format : MPEG Audio
Format version : Version 1
Format profile : Layer 3
Codec ID : 55
Codec ID/Hint : MP3
Duration : 45mn 0s
Bit rate mode : Constant
Bit rate : 128 Kbps
Channel(s) : 2 channels
Sampling rate : 48.0 KHz
Resolution : 16 bits
Stream size : 41.2 MiB (7%)
Alignment : Split accross interleaves
Interleave, duration : 40 ms (1.00 video frame)
Interleave, preload duration : 500 ms





files.unn

Чтобы увидеть скрытый текст Вам нужно нажать кнопочку "Открыть Hide"
У вас нет прав чтобы видеть скрытый текст, содержащийся здесь.
__________________
alexrocker вне форума  
Ответить с цитированием
Эти 10 пользователя(ей) сказали Спасибо alexrocker за это полезное сообщение:
AngelLana (25.07.2010), Basta (28.06.2010), dajacobs (28.06.2010), dimone (01.07.2010), Dood (28.06.2010), guest77 (30.06.2010), Levka (06.07.2010), orfer (02.07.2010), Parasit (29.06.2010), Tolyan_424 (05.07.2010)
Хайд открыли:
Брат Люмьер (29.12.2011), Aurum (28.08.2011), Экзор (14.09.2010), Nicotine (24.07.2010), zritel100 (24.07.2010), Levka (06.07.2010), Tolyan_424 (05.07.2010), orfer (02.07.2010), dimone (01.07.2010), Aleks49 (30.06.2010), guest77 (30.06.2010), IMiDZh (29.06.2010), Parasit (29.06.2010), dajacobs (28.06.2010), Dood (28.06.2010), kurwit (28.06.2010), Basta (28.06.2010), papa-al (28.06.2010)
Старый 25.07.2010, 13:46   #2
Приятель
 
Регистрация: 12.09.2008
Пол: М
Провайдер: ВТ
Сообщений: 186
Поблагодарил: 5,602
Поблагодарили 309 раз в 78 сообщениях
Открыли хайд :
11 в этом сообщении
821 Всего


По умолчанию

перезалив на [Для просмотра данной ссылки нужно зарегистрироваться] до 07.08

Спойлер:
Чтобы увидеть скрытый текст Вам нужно нажать кнопочку "Открыть Hide"
У вас нет прав чтобы видеть скрытый текст, содержащийся здесь.
guest77 вне форума  
Ответить с цитированием
Этот пользователь сказал Спасибо guest77 за это полезное сообщение:
zvsgenius (26.07.2010)
Хайд открыли:
Экзор (14.09.2010), dimone (02.09.2010), Birdcatcher (01.08.2010), dimmer (31.07.2010), mary-tinny (29.07.2010), мастер (28.07.2010), gorod (27.07.2010), zvsgenius (26.07.2010), rassudan (26.07.2010), Serj_52Rus (25.07.2010), soleg (25.07.2010)
Старый 28.12.2011, 23:25   #3
Модератор
 
Аватар для Painkill333
 
Регистрация: 07.10.2007
Адрес: Нижний Новгород Кузнечиха-2
Пол: M
Провайдер: Ростелеком
Сообщений: 5,454
Поблагодарил: 557
Поблагодарили 38,087 раз в 5,032 сообщениях
Открыли хайд :
3 в этом сообщении
86,735 Всего

Награды пользователя:



По умолчанию Сергей Бодров. Где ты, брат? (2011, Биографический) SATRip

Сергей Бодров. Где ты, брат?

Дата выхода: 2011
Страна: Россия
Жанр: Биографический
Продолжительность: 00:52:06

Описание: 27 декабря 2011 года Сергею Бодрову исполнилось бы 40 лет. Фильм посвящен человеку, который так и остался загадкой для многих.
Кем же он все-таки был – необычным актером, режиссером с ярким авторским почерком, популярным телеведущим, героем 90-х? У него много ипостасей, но, наверное, даже все вместе они не дают ответа на вопрос – почему так любили Сергея Бодрова и почему он до сих пор жив в сердцах многих людей?

Качество: SATRip
Формат файла: AVI
Видео кодек: XviD
Аудио кодек: MP3
Видео: 704x384 (1.83:1), 25 fps, XviD MPEG-4 ~1402 kbps avg, 0.21 bit/pixel
Аудио: 48 kHz, MPEG Layer 3, 2 ch, ~128.00 kbps avg
Размер: 572.5 МБ
Скриншоты:








Залито на UNN
Чтобы увидеть скрытый текст Вам нужно нажать кнопочку "Открыть Hide"
У вас нет прав чтобы видеть скрытый текст, содержащийся здесь.

Шара-НН
Чтобы увидеть скрытый текст Вам нужно нажать кнопочку "Открыть Hide"
У вас нет прав чтобы видеть скрытый текст, содержащийся здесь.
__________________
[Для просмотра данной ссылки нужно зарегистрироваться]

Последний раз редактировалось Painkill333; 28.12.2011 в 23:39.
Painkill333 вне форума  
Ответить с цитированием
Эти 2 пользователя(ей) сказали Спасибо Painkill333 за это полезное сообщение:
guest77 (03.01.2012), Yapo (29.12.2011)
Хайд открыли:
guest77 (03.01.2012), Genok (29.12.2011), MerZonder (29.12.2011)
Старый 29.12.2011, 06:53   #4
Мега Друг
 
Аватар для Yapo
 
Регистрация: 16.07.2008
Адрес: Nizhny Novgorod
Пол: М
Провайдер: Стрим
Сообщений: 1,449
Поблагодарил: 1,181
Поблагодарили 883 раз в 352 сообщениях
Открыли хайд :
0 в этом сообщении
736 Всего


По умолчанию

Спасибо, вспомним Данилу Багрова...
__________________
Продаю монитор Acer S220HQLBBD 21.5

Последний раз редактировалось Yapo; 29.12.2011 в 06:55.
Yapo вне форума  
Ответить с цитированием
Старый 20.09.2012, 14:40   #5
Модератор
 
Аватар для Painkill333
 
Регистрация: 07.10.2007
Адрес: Нижний Новгород Кузнечиха-2
Пол: M
Провайдер: Ростелеком
Сообщений: 5,454
Поблагодарил: 557
Поблагодарили 38,087 раз в 5,032 сообщениях
Открыли хайд :
2 в этом сообщении
86,735 Всего

Награды пользователя:



По умолчанию Кармадон. 10 лет спустя (2012, Документальный) SATRip

Кармадон. 10 лет спустя



Страна: Россия
Жанр: Документальный
Продолжительность: 00:52:04
Перевод: Не требуется

Описание: 20 сентября 2002 года в Кармадонском ущелье Северной Осетии сошел ледник Колка. В этой катастрофе пропало без вести более 150 человек, в том числе и съемочная группа Сергея Бодрова-младшего.

Спустя 10 лет в этой истории, казалось бы, не осталось неисследованных фактов и "белых пятен", официальная версия произошедшего известна всем. Однако в результате расследования всплыли уникальные и ранее неизвестные данные. Они заставляют посмотреть на произошедшее с совершенно неожиданной стороны. Оказывается, практически никто так и не узнал правды и до сих пор не представляет, что на самом деле случилось тем вечером. Мы опросили десятки свидетелей и буквально по часам реконструировали день 20 сентября. Выяснилось, что в момент схода лавины съемочная группа Сергея Бодрова находилась вовсе не там, где считали спасатели. И только невероятное и почти мистическое стечение обстоятельств не позволило погибнуть еще большему числу людей. Среди жертв Колки могли оказаться Юлий Гусман, Тимур Вайнштейн и Гоша Куценко, а также съемочная группа Ярополка Лапшина. Мы узнали причины, по которым почти два года команда спасателей самоотверженно проводила раскопки на месте схода ледника и столкнулась с невероятными совпадениями. Эти совпадения заставят поверить в судьбу даже самых отъявленных скептиков.

Нам удалось выяснить, где находился Сергей Бодров около восьми вечера 20 сентября, почему он задержался в горах, кого он ждал и какие именно действия привели к тому, что он не успел покинуть ущелье вовремя.

В фильме принимают участие местные жители Кармадонского ущелья, все основные участники раскопок, родные и близкие актера Хашби Галазова, который играл главную роль в фильме "Связной", а также чудом выжившие члены съемочной группы Сергея Бодрова-младшего.

Впервые для телевидения согласился дать развернутое интервью Константин Джерапов – главный организатор раскопок тоннеля. Он был на месте трагедии с первого до последнего дня. В катастрофе погиб сын его близкого друга. Джерапов не просто организовывал поиск погибших людей, он морально поддерживал и поддерживает до сих пор их родственников. Он первым нашел и пробурил вход в тоннель и спустился туда, рискуя собственной жизнью.

История ледника Колка – это не просто история катастрофы, а рассказ об удивительных и очень талантливых людях, судьбы которых переплелись самым неожиданным образом.



Релиз группы:

Качество: SATRip
Формат: AVI
Видео кодек: XviD
Аудио кодеk: MP3
Видео: 704x400 (16:9), 25.000 fps, XviD, 1 550 Kbps
Аудио: Аудио #1: MP3, 128 Kbps, 48.0 KHz, 2 ch
Размер: 628.59 МБ



МедиаИнфо:
Код:
General
Complete name                    : Karmadon.10.let.spustja.SATRip.[www.Riper.AM].avi
Format                           : AVI
Format/Info                      : Audio Video Interleave
File size                        : 629 MiB
Duration                         : 52mn 4s
Overall bit rate                 : 1 688 Kbps
Writing application              : VirtualDubMod 1.5.10.3 | www.virtualdub-fr.org || (build 2550/release)
Writing library                  : VirtualDubMod build 2550/release

Video
ID                               : 0
Format                           : MPEG-4 Visual
Format profile                   : Advanced Simple@L5
Format settings, BVOP            : Yes
Format settings, QPel            : No
Format settings, GMC             : No warppoints
Format settings, Matrix          : Default (H.263)
Codec ID                         : XVID
Codec ID/Hint                    : XviD
Duration                         : 52mn 4s
Bit rate                         : 1 550 Kbps
Width                            : 704 pixels
Height                           : 400 pixels
Display aspect ratio             : 16:9
Frame rate                       : 25.000 fps
Color space                      : YUV
Chroma subsampling               : 4:2:0
Bit depth                        : 8 bits
Scan type                        : Progressive
Bits/(Pixel*Frame)               : 0.220
Stream size                      : 577 MiB (92%)
Writing library                  : XviD 63

Audio
ID                               : 1
Format                           : MPEG Audio
Format version                   : Version 1
Format profile                   : Layer 3
Mode                             : Joint stereo
Mode extension                   : MS Stereo
Codec ID                         : 55
Codec ID/Hint                    : MP3
Duration                         : 52mn 4s
Bit rate mode                    : Constant
Bit rate                         : 128 Kbps
Channel(s)                       : 2 channels
Sampling rate                    : 48.0 KHz
Stream size                      : 47.7 MiB (8%)
Alignment                        : Aligned on interleaves
Interleave, duration             : 40 ms (1.00 video frame)
Interleave, preload duration     : 504 ms
Writing library                  : LAME3.98r
Encoding settings                : -m j -V 4 -q 0 -lowpass 17 -b 128

Скриншоты:






Залито на files.unn и share-nn
Чтобы увидеть скрытый текст Вам нужно нажать кнопочку "Открыть Hide"
У вас нет прав чтобы видеть скрытый текст, содержащийся здесь.
__________________
[Для просмотра данной ссылки нужно зарегистрироваться]
Painkill333 вне форума  
Ответить с цитированием
Эти 2 пользователя(ей) сказали Спасибо Painkill333 за это полезное сообщение:
Ishtar (20.09.2012), tmagin (20.09.2012)
Хайд открыли:
Кукушонок (19.10.2012), tmagin (20.09.2012)
Ответ

Метки
file, format, radikal, satrip, биографический, бодров, брат, документальный, кармадон, сергей, спустя, _______________


Здесь присутствуют: 1 (пользователей: 0 , гостей: 1)
 
Опции темы
Опции просмотра

Ваши права в разделе
Вы не можете создавать новые темы
Вы не можете отвечать в темах
Вы не можете прикреплять вложения
Вы не можете редактировать свои сообщения

BB коды Вкл.
Смайлы Вкл.
[IMG] код Вкл.
HTML код Выкл.
Trackbacks are Выкл.
Pingbacks are Выкл.
Refbacks are Выкл.


Часовой пояс GMT +3, время: 12:46.