Вернуться   Нижегородский Форум Друзей > Обсуждаем и качаем > Видео > Зарубежные сериалы > Звёздный Крейсер Галактика / Battlestar Galactica
Забыли пароль? Регистрация




Ответ
 
Опции темы Опции просмотра
Старый 08.02.2013, 16:03   #1
Модератор
 
Аватар для Painkill333
 
Регистрация: 07.10.2007
Адрес: Нижний Новгород Кузнечиха-2
Пол: M
Провайдер: Ростелеком
Сообщений: 5,454
Поблагодарил: 556
Поблагодарили 38,087 раз в 5,032 сообщениях
Открыли хайд :
22 в этом сообщении
86,735 Всего

Награды пользователя:



Счастье Звёздный крейсер Галактика: Кровь и Хром / Battlestar Galactica: Blood and Chrome (2012 г., фантастика, боевик, драма) HDRip

Звездный Крейсер Галактика: Кровь и Хром / Battlestar Galactica: Blood & Chrome



Год выпуска: 2011
Страна: США
Жанр: фантастика, боевик, драма
Продолжительность: 01:33:32
Перевод: Профессиональный (многоголосый закадровый)

Режиссер: Лоуренс Риггинс
Сценарий: Дэвид Эйк, Глен А. Ларсон, Майкл Тейлор, ...
Продюсер: Джефф Диаз, Дэвид Эйк, Майк Гибсон, ...
Оператор: Лукас Эттлин
Композитор: Беар МакКрири
Художник: Брайан Кэйн, Тайлер Бишоп Херрон
Монтаж: Рон Розен, Эндрю Секлир

В ролях: [Для просмотра данной ссылки нужно зарегистрироваться] (William Adama), [Для просмотра данной ссылки нужно зарегистрироваться] (Coker Fasjovik), [Для просмотра данной ссылки нужно зарегистрироваться] (Commander Ozar), [Для просмотра данной ссылки нужно зарегистрироваться] (Dr. Becca Kelly), [Для просмотра данной ссылки нужно зарегистрироваться] (Osirus Marine), [Для просмотра данной ссылки нужно зарегистрироваться] (Deke Tornvald), [Для просмотра данной ссылки нужно зарегистрироваться] (Derek Shelby), [Для просмотра данной ссылки нужно зарегистрироваться] (Humanoid Cylon)
[Для просмотра данной ссылки нужно зарегистрироваться] [Для просмотра данной ссылки нужно зарегистрироваться] [Для просмотра данной ссылки нужно зарегистрироваться] [Для просмотра данной ссылки нужно зарегистрироваться] [Для просмотра данной ссылки нужно зарегистрироваться] [Для просмотра данной ссылки нужно зарегистрироваться] [Для просмотра данной ссылки нужно зарегистрироваться] [Для просмотра данной ссылки нужно зарегистрироваться]

Описание: События происходят на 10-м году первой войны с сайлонами. В то время как бушует сражение между людьми и их созданиями, разумной расой роботов, на всех 12 Колониальных мирах, самоуверенный молодой пилот вайпера вступает в драку. Энсин Уильям Адама, недавний выпускник Академии, которому чуть больше 20 лет, обнаруживает себя назначенным на один из самых мощных кораблей в Колониальном флоте… Галактику. Талантливый, но импульсивный любитель рисковать скоро становится лидером опасной и секретной миссии, которая, в случае успеха, повернет десятилетнюю войну в пользу отчаявшегося флота.

Доп. информация: Примечание: Отсутствует около 2х минут перевода !

[Для просмотра данной ссылки нужно зарегистрироваться][Для просмотра данной ссылки нужно зарегистрироваться]



Качество: HDRip
Формат: AVI
Видео кодек: XviD
Аудио кодеk: MP3
Видео: 720x400 (16:9), 23.976 fps, XviD, 1 955 Kbps
Аудио: Аудио #1: MP3, 128 Kbps, 44.1 KHz, 2 ch



МедиаИнфо:
Код:
General
Complete name                    : Zvezdnyj.krejser.galaktika.2012.P.HDRip.avi
Format                           : AVI
Format/Info                      : Audio Video Interleave
File size                        : 1.37 GiB
Duration                         : 1h 33mn
Overall bit rate                 : 2 092 Kbps
Writing application              : VirtualDubMod 1.5.10.2 (build 2540/release)
Writing library                  : VirtualDubMod build 2540/release

Video
ID                               : 0
Format                           : MPEG-4 Visual
Format profile                   : Advanced Simple@L5
Format settings, BVOP            : Yes
Format settings, QPel            : No
Format settings, GMC             : No warppoints
Format settings, Matrix          : Default (MPEG)
Codec ID                         : XVID
Codec ID/Hint                    : XviD
Duration                         : 1h 33mn
Bit rate                         : 1 955 Kbps
Width                            : 720 pixels
Height                           : 400 pixels
Display aspect ratio             : 16:9
Frame rate                       : 23.976 fps
Color space                      : YUV
Chroma subsampling               : 4:2:0
Bit depth                        : 8 bits
Scan type                        : Progressive
Bits/(Pixel*Frame)               : 0.283
Stream size                      : 1.28 GiB (93%)
Writing library                  : XviD 1.2.1 (UTC 2008-12-04)

Audio
ID                               : 1
Format                           : MPEG Audio
Format version                   : Version 1
Format profile                   : Layer 3
Codec ID                         : 55
Codec ID/Hint                    : MP3
Duration                         : 1h 33mn
Bit rate mode                    : Constant
Bit rate                         : 128 Kbps
Channel(s)                       : 2 channels
Sampling rate                    : 44.1 KHz
Stream size                      : 85.6 MiB (6%)
Alignment                        : Split accross interleaves
Interleave, duration             : 42 ms (1.00 video frame)
Interleave, preload duration     : 500 ms

Скриншоты:






Залито на files.unn
Чтобы увидеть скрытый текст Вам нужно нажать кнопочку "Открыть Hide"
У вас нет прав чтобы видеть скрытый текст, содержащийся здесь.

share-nn
Чтобы увидеть скрытый текст Вам нужно нажать кнопочку "Открыть Hide"
У вас нет прав чтобы видеть скрытый текст, содержащийся здесь.
__________________
[Для просмотра данной ссылки нужно зарегистрироваться]

Последний раз редактировалось Painkill333; 08.02.2013 в 18:23.
Painkill333 вне форума  
Ответить с цитированием
Эти 10 пользователя(ей) сказали Спасибо Painkill333 за это полезное сообщение:
Aleks49 (11.02.2013), Anelka (08.02.2013), denion123 (11.02.2013), dyk_nn (09.02.2013), MilaN (08.02.2013), mrno (11.02.2013), pabar (08.02.2013), Ramping Ram (10.02.2013), roro (09.02.2013), xxxserxxx (10.02.2013)
Хайд открыли:
Развернуть/свернуть список
Старый 10.02.2013, 19:51   #2
Товарищ
 
Аватар для Виктор77
 
Регистрация: 10.03.2009
Пол: M
Провайдер: Эр-Телеком
Сообщений: 268
Поблагодарил: 283
Поблагодарили 125 раз в 67 сообщениях
Открыли хайд :
0 в этом сообщении
0 Всего


По умолчанию

Блин так это одно и тоже я же не в лыжи обутый

ну скачай посмотри
Виктор77 вне форума  
Ответить с цитированием
Старый 11.02.2013, 03:45   #3
Администратор
 
Аватар для Goblin
 
Регистрация: 12.09.2007
Адрес: Н.Н. Автозавод.
Пол: M
Провайдер: Ростелеком
Сообщений: 10,445
Поблагодарил: 400
Поблагодарили 25,199 раз в 7,583 сообщениях
Открыли хайд :
0 в этом сообщении
7,766 Всего


По умолчанию

уговорил.
Goblin вне форума  
Ответить с цитированием
Ответ

Метки
battlestar, blood, chrome, format, galactica, hdrip, radikal, боевик, галактика, драма, звёздный, крейсер, кровь, фантастика, хром


Здесь присутствуют: 1 (пользователей: 0 , гостей: 1)
 
Опции темы
Опции просмотра

Ваши права в разделе
Вы не можете создавать новые темы
Вы не можете отвечать в темах
Вы не можете прикреплять вложения
Вы не можете редактировать свои сообщения

BB коды Вкл.
Смайлы Вкл.
[IMG] код Вкл.
HTML код Выкл.
Trackbacks are Выкл.
Pingbacks are Выкл.
Refbacks are Выкл.


Часовой пояс GMT +3, время: 08:04.