Вернуться   Нижегородский Форум Друзей > Обсуждаем и качаем > Музыка > Lossless > Hard Клуб > Death Metal Lossless
Забыли пароль? Регистрация



Death Metal Lossless Death Metal / Brutal Death / Technical Death / Melodic Death


Ответ
 
Опции темы Опции просмотра
Старый 23.06.2009, 01:13   #1
Хороший Друг
 
Регистрация: 07.03.2008
Адрес: Everywhere
Пол: М
Провайдер: Другой
Сообщений: 462
Поблагодарил: 654
Поблагодарили 861 раз в 293 сообщениях
Открыли хайд :
5 в этом сообщении
960 Всего


По умолчанию [Death / Doom Metal] Winter

Winter - 1999 - Into Darkness & Eternal Frost (Nuclear Blast NB 446-2)



Country: USA
Genre: Death/Doom Metal
Year: 1999
Format: FLAC (image + .cue)
Source: sergdigger ([Для просмотра данной ссылки нужно зарегистрироваться])

TrackList:

01. Oppression Freedom / Reprise (5:57)
02. Servants Of The Warsmen (4:24)
03. Goden (8:19)
04. Power And Might (2:43)
05. Destiny (8:31)
06. Eternal Frost (6:48)
07. Into Darkness (9:28)
08. Servants Of The Warsmen (4:08)
09. Eternal Frost (5:41)
10. Winter (3:07)
11. Blackwhole (5:27)
12. Manifestations I (6:50)

EAC Log:

Exact Audio Copy V0.99 prebeta 4 from 23. January 2008

Отчёт EAC об извлечении, выполненном 4. марта 2008, 21:43

Winter / Into Darkness & Eternal Frost

Дисковод: ASUS DRW-1814BLT Adapter: 3 ID: 0

Режим чтения : Достоверность
Использование точного потока : Да
Отключение кэша аудио : Да
Использование указателей C2 : Нет

Коррекция смещения при чтении : 6
Способность читать области Lead-in и Lead-out : Нет
Заполнение пропущенных сэмплов тишиной : Да
Удаление блоков с тишиной в начале и конце : Нет
При вычислениях CRC использовались нулевые сэмплы : Нет
Интерфейс : Установленный внешний ASPI-интерфейс

Выходной формат : Внутренние WAV-операции
Формат сэмплов : 44.100 Гц; 16 бит; стерео


TOC извлечённого CD

Трек | Старт | Длительность | Начальный сектор | Конечный сектор
---------------------------------------------------------------------
1 | 0:00.00 | 5:56.49 | 0 | 26748
2 | 5:56.49 | 4:23.64 | 26749 | 46537
3 | 10:20.38 | 8:18.40 | 46538 | 83927
4 | 18:39.03 | 2:43.23 | 83928 | 96175
5 | 21:22.26 | 8:31.10 | 96176 | 134510
6 | 29:53.36 | 6:47.55 | 134511 | 165090
7 | 36:41.16 | 9:27.61 | 165091 | 207676
8 | 46:09.02 | 4:07.73 | 207677 | 226274
9 | 50:17.00 | 5:41.26 | 226275 | 251875
10 | 55:58.26 | 3:06.62 | 251876 | 265887
11 | 59:05.13 | 5:27.23 | 265888 | 290435
12 | 64:32.36 | 6:50.35 | 290436 | 321220


Характеристики диапазона извлечения и сообщения об ошибках

Выбранный диапазон

Имя файла D:\Music Torrents\Winter - Into Darkness & Eternal Frost\Winter - Into Darkness & Eternal Frost.wav

Пиковый уровень 98.8 %
Качество диапазона 99.9 %
CRC копии 89846C86
Копирование... OK

Ошибок не произошло


AccurateRip: сводка

Трек 1 точное извлечение (доверие 1) [A68C7D87]
Трек 2 точное извлечение (доверие 1) [85878DAF]
Трек 3 точное извлечение (доверие 1) [059903C7]
Трек 4 точное извлечение (доверие 1) [67B9B885]
Трек 5 точное извлечение (доверие 1) [045552D0]
Трек 6 точное извлечение (доверие 1) [96066D4A]
Трек 7 точное извлечение (доверие 1) [8A57472A]
Трек 8 точное извлечение (доверие 1) [7C8D7DC4]
Трек 9 точное извлечение (доверие 1) [6A8051D7]
Трек 10 точное извлечение (доверие 1) [5188C297]
Трек 11 точное извлечение (доверие 1) [99715FBA]
Трек 12 точное извлечение (доверие 1) [C21487C7]

Все треки извлечены точно

Конец отчёта


Ссылки на share.nnov.ru:

Чтобы увидеть скрытый текст Вам нужно нажать кнопочку "Открыть Hide"
У вас нет прав чтобы видеть скрытый текст, содержащийся здесь.
Avelis вне форума  
Ответить с цитированием
Эти 3 пользователя(ей) сказали Спасибо Avelis за это полезное сообщение:
barsik33 (23.06.2009), dying_inside (23.06.2009), Maniac (23.06.2009)
Хайд открыли:
murzikus (23.10.2009), DreadMashine (26.06.2009), dying_inside (23.06.2009), barsik33 (23.06.2009), Maniac (23.06.2009)
Старый 23.06.2009, 20:43   #2
Огненный Бог Марранов
 
Аватар для Gentle_Giant
 
Регистрация: 01.09.2007
Адрес: Пьяный Угол
Пол: M
Сообщений: 508
Поблагодарил: 328
Поблагодарили 874 раз в 326 сообщениях
Открыли хайд :
0 в этом сообщении
464 Всего


По умолчанию

Я выкладывал на NNTT рип релиз от Gnoppi/MMT - тоже Nuclear Blast NB 446-2, что характерно он отличается (при правильно выставленном оффсете) от прессинга в базе AccurateRip.

Обложка digipak'а:


CUETools:
Код:
[Verification date: 15.04.2009 14:55:30]
[Disc ID: 00204b0e-012dbdd4-a010ba0c]
Track	[ CRC    ] Status
 01	[5b2ffa21] (00/01) No matches
 02	[6b3375c7] (00/01) No matches
 03	[9bfe474a] (00/01) No matches
 04	[e64d8ed0] (00/01) No matches
 05	[09d56f1c] (00/01) No matches
 06	[da9c5a25] (00/01) No matches
 07	[fb646e0e] (00/01) No matches
 08	[893fce48] (00/01) No matches
 09	[a35f5b47] (00/01) No matches
 10	[bcdb52f6] (00/01) No matches
 11	[3c061eda] (00/01) No matches
 12	[467cc6d1] (00/01) No matches
Offsetted by -71:
 01	[a68c7d87] (01/01) Accurately ripped as in pressing(s) #1
 02	[85878daf] (01/01) Accurately ripped as in pressing(s) #1
 03	[059903c7] (01/01) Accurately ripped as in pressing(s) #1
 04	[67b9b885] (01/01) Accurately ripped as in pressing(s) #1
 05	[045552d0] (01/01) Accurately ripped as in pressing(s) #1
 06	[96066d4a] (01/01) Accurately ripped as in pressing(s) #1
 07	[8a57472a] (01/01) Accurately ripped as in pressing(s) #1
 08	[7c8d7dc4] (01/01) Accurately ripped as in pressing(s) #1
 09	[6a8051d7] (01/01) Accurately ripped as in pressing(s) #1
 10	[5188c297] (01/01) Accurately ripped as in pressing(s) #1
 11	[99715fba] (01/01) Accurately ripped as in pressing(s) #1
 12	[c21487c7] (01/01) Accurately ripped as in pressing(s) #1


К чему бы это?


P.S. Место этой группе несомненно в разделе Doom.
__________________
Любители потрековых lossless релизов — на самом деле латентные lossy-филы.

Последний раз редактировалось Gentle_Giant; 23.06.2009 в 20:47.
Gentle_Giant вне форума  
Ответить с цитированием
Старый 23.06.2009, 21:03   #3
Дружище
 
Аватар для dying_inside
 
Регистрация: 21.12.2006
Пол: M
Провайдер: Стрим
Сообщений: 960
Поблагодарил: 4,777
Поблагодарили 1,524 раз в 555 сообщениях
Открыли хайд :
0 в этом сообщении
537 Всего


По умолчанию

Цитата:
Сообщение от Avelis Посмотреть сообщение
AccurateRip: сводка

Трек 1 точное извлечение (доверие 1) [A68C7D87]
это как бэ говорит нам...
dying_inside вне форума  
Ответить с цитированием
Старый 23.06.2009, 21:10   #4
Продюсер
 
Аватар для Maniac
 
Регистрация: 19.09.2007
Пол: M
Провайдер: Dial-up
Сообщений: 3,323
Поблагодарил: 1,757
Поблагодарили 4,783 раз в 1,407 сообщениях
Открыли хайд :
0 в этом сообщении
5,329 Всего


По умолчанию

dying_inside, такое доверие не о чём не говорит, что есть, что нет.

Сегодня видел на одном фирменном СД Джудас прист доверие 40, я ****

Вот

AccurateRip: доверие 40:
Exact Audio Copy V0.99 prebeta 4 from 23. January 2008

Отчёт EAC об извлечении, выполненном 31. января 2009, 9:23

Judas Priest / Angel Of Retribution

Дисковод: HL-DT-STDVDRAM GSA-T50N Adapter: 0 ID: 1

Режим чтения : Достоверность
Использование точного потока : Да
Отключение кэша аудио : Да
Использование указателей C2 : Нет

Коррекция смещения при чтении : 667
Способность читать области Lead-in и Lead-out : Нет
Заполнение пропущенных сэмплов тишиной : Да
Удаление блоков с тишиной в начале и конце : Нет
При вычислениях CRC использовались нулевые сэмплы : Да
Интерфейс : Встроенный Win32-интерфейс для Win NT/2000

Выходной формат : Внутренние WAV-операции
Формат сэмплов : 44.100 Гц; 16 бит; стерео

TOC извлечённого CD

Трек | Старт | Длительность | Начальный сектор | Конечный сектор
---------------------------------------------------------------------
1 | 0:00.00 | 4:13.07 | 0 | 18981
2 | 4:13.07 | 3:54.63 | 18982 | 36594
3 | 8:07.70 | 4:42.70 | 36595 | 57814
4 | 12:50.65 | 4:18.50 | 57815 | 77214
5 | 17:09.40 | 4:37.70 | 77215 | 98059
6 | 21:47.35 | 3:46.52 | 98060 | 115061
7 | 25:34.12 | 4:24.15 | 115062 | 134876
8 | 29:58.27 | 6:23.43 | 134877 | 163644
9 | 36:21.70 | 2:52.25 | 163645 | 176569
10 | 39:14.20 | 13:29.67 | 176570 | 237311

Характеристики диапазона извлечения и сообщения об ошибках

Выбранный диапазон

Имя файла C:\Users\Алексей\Judas Priest - Angel Of Retribution(Original)\Judas Priest - Angel Of Retribution.wav

Пиковый уровень 100.0 %
Качество диапазона 100.0 %
CRC копии 9ACE0312
Копирование... OK

Ошибок не произошло

AccurateRip: сводка

Трек 1 точное извлечение (доверие 39) [205EF3F1]
Трек 2 точное извлечение (доверие 40) [7013304C]
Трек 3 точное извлечение (доверие 40) [81787010]
Трек 4 точное извлечение (доверие 40) [9D93815B]
Трек 5 точное извлечение (доверие 40) [D60F06BB]
Трек 6 точное извлечение (доверие 40) [6DD9C27D]
Трек 7 точное извлечение (доверие 40) [07C0C2FC]
Трек 8 точное извлечение (доверие 40) [3FD446E8]
Трек 9 точное извлечение (доверие 40) [6FC16185]
Трек 10 точное извлечение (доверие 40) [90548EE8]

Все треки извлечены точно

Конец отчёта

Последний раз редактировалось Qwenn; 24.06.2009 в 18:47.
Maniac вне форума  
Ответить с цитированием
Старый 23.06.2009, 21:20   #5
Дружище
 
Аватар для dying_inside
 
Регистрация: 21.12.2006
Пол: M
Провайдер: Стрим
Сообщений: 960
Поблагодарил: 4,777
Поблагодарили 1,524 раз в 555 сообщениях
Открыли хайд :
0 в этом сообщении
537 Всего


По умолчанию

Цитата:
Сообщение от Maniac Посмотреть сообщение
dying_inside, такое доверие не о чём не говорит, что есть, что нет.
собсна я и имел ввиду что не стоит верить этим данным

Цитата:
Сообщение от Maniac Посмотреть сообщение
Сегодня видел на одном фирменном СД Джудас прист доверие 40, я ****.
а у папсовых групп часто так) вот к примеру первое чё попалось, Children Of Bodom\2005 - Are You Dead Yet:
Спойлер:
Exact Audio Copy V0.99 prebeta 4 from 23. January 2008

EAC extraction logfile from 12. June 2009, 17:20

Children Of Bodom / Are You Dead Yet?

Used drive : MATSHITADVD-RAM UJ-842S Adapter: 0 ID: 0

Read mode : Secure
Utilize accurate stream : Yes
Defeat audio cache : Yes
Make use of C2 pointers : No

Read offset correction : 102
Overread into Lead-In and Lead-Out : No
Fill up missing offset samples with silence : Yes
Delete leading and trailing silent blocks : No
Null samples used in CRC calculations : Yes
Used interface : Native Win32 interface for Win NT & 2000

Used output format : Internal WAV Routines
Sample format : 44.100 Hz; 16 Bit; Stereo


TOC of the extracted CD

Track | Start | Length | Start sector | End sector
---------------------------------------------------------
1 | 0:00.00 | 5:18.07 | 0 | 23856
2 | 5:18.07 | 3:54.66 | 23857 | 41472
3 | 9:12.73 | 3:57.48 | 41473 | 59295
4 | 13:10.46 | 4:51.08 | 59296 | 81128
5 | 18:01.54 | 4:15.73 | 81129 | 100326
6 | 22:17.52 | 4:19.06 | 100327 | 119757
7 | 26:36.58 | 3:29.05 | 119758 | 135437
8 | 30:05.63 | 4:01.48 | 135438 | 153560
9 | 34:07.36 | 3:17.48 | 153561 | 168383


Range status and errors

Selected range

Filename C:\COB - Are You Dead Yet\Children Of Bodom - Are You Dead Yet.wav

Peak level 97.7 %
Range quality 99.9 %
Test CRC 6DA228C7
Copy CRC 6DA228C7
Copy OK

No errors occurred


AccurateRip summary

Track 1 accurately ripped (confidence 39) [E780F361]
Track 2 accurately ripped (confidence 39) [81FF26A3]
Track 3 accurately ripped (confidence 37) [D73172C5]
Track 4 accurately ripped (confidence 38) [C3E31CD8]
Track 5 accurately ripped (confidence 38) [371840A1]
Track 6 accurately ripped (confidence 39) [2FDFCD01]
Track 7 accurately ripped (confidence 37) [7AEF97E1]
Track 8 accurately ripped (confidence 38) [7737E617]
Track 9 accurately ripped (confidence 36) [5D229318]

All tracks accurately ripped

End of status report

Последний раз редактировалось Qwenn; 24.06.2009 в 18:47.
dying_inside вне форума  
Ответить с цитированием
Старый 23.06.2009, 21:27   #6
Продюсер
 
Аватар для Maniac
 
Регистрация: 19.09.2007
Пол: M
Провайдер: Dial-up
Сообщений: 3,323
Поблагодарил: 1,757
Поблагодарили 4,783 раз в 1,407 сообщениях
Открыли хайд :
0 в этом сообщении
5,329 Всего


По умолчанию

Насчёт пАпсовых групп, (надеюсь ты имеешь ввиду популярных), есть такая группа Креатор, а у неё супер популярный альбом Экстрим эгрешн, так вот его нет не где в правильном лосе, искал и в закрытых доках и на торрентах и на ммт и людям писал, не у кого нет. Фантастика.
Maniac вне форума  
Ответить с цитированием
Старый 23.06.2009, 21:40   #7
Огненный Бог Марранов
 
Аватар для Gentle_Giant
 
Регистрация: 01.09.2007
Адрес: Пьяный Угол
Пол: M
Сообщений: 508
Поблагодарил: 328
Поблагодарили 874 раз в 326 сообщениях
Открыли хайд :
0 в этом сообщении
464 Всего


По умолчанию

Интересно, а почему номер каталога совпадает?

Альбом есть в нескольких версиях:
оригинал без EP - [Для просмотра данной ссылки нужно зарегистрироваться] (серая обложка);
оригинал + EP, не ремастер - [Для просмотра данной ссылки нужно зарегистрироваться] (синяя обложка, NB 446-2) - наш случай;
оригинал + EP, ремастер - [Для просмотра данной ссылки нужно зарегистрироваться] (серая обложка, MASS CD 1136 DG).

dying_inside, там полиграфия какая? И зачем тебе он в двух экземплярах?
__________________
Любители потрековых lossless релизов — на самом деле латентные lossy-филы.
Gentle_Giant вне форума  
Ответить с цитированием
Старый 23.06.2009, 22:58   #8
Дружище
 
Аватар для dying_inside
 
Регистрация: 21.12.2006
Пол: M
Провайдер: Стрим
Сообщений: 960
Поблагодарил: 4,777
Поблагодарили 1,524 раз в 555 сообщениях
Открыли хайд :
0 в этом сообщении
537 Всего


По умолчанию

мда... муть такая с этим аккуратрипом...

я сейчас проверил рип который выложил Avelis (лог EAC в первом посте), вот результаты cuetools:
Спойлер:
[Verification date: 23.06.2009 22:40:23]
[Disc ID: 00204b0e-012dbdd4-a010ba0c]
Track [ CRC ] Status
01 [a68c7d87] (00/02) No matches
02 [85878daf] (00/02) No matches
03 [059903c7] (00/02) No matches
04 [67b9b885] (00/02) No matches
05 [045552d0] (00/02) No matches
06 [96066d4a] (00/02) No matches
07 [8a57472a] (00/02) No matches
08 [7c8d7dc4] (00/00) No matches
09 [6a8051d7] (00/02) No matches
10 [5188c297] (00/02) No matches
11 [99715fba] (00/02) No matches
12 [c21487c7] (00/02) No matches
Offsetted by 71:
01 [5b2ffa21] (02/02) Accurately ripped as in pressing(s) #1
02 [6b3375c7] (02/02) Accurately ripped as in pressing(s) #1
03 [9bfe474a] (02/02) Accurately ripped as in pressing(s) #1
04 [e64d8ed0] (02/02) Accurately ripped as in pressing(s) #1
05 [09d56f1c] (02/02) Accurately ripped as in pressing(s) #1
06 [da9c5a25] (02/02) Accurately ripped as in pressing(s) #1
07 [fb646e0e] (02/02) Accurately ripped as in pressing(s) #1
08 [893fce48] (00/00) No matches
09 [a35f5b47] (02/02) Accurately ripped as in pressing(s) #1
10 [bcdb52f6] (02/02) Accurately ripped as in pressing(s) #1
11 [3c061eda] (02/02) Accurately ripped as in pressing(s) #1
12 [467cc6d1] (02/02) Accurately ripped as in pressing(s) #1

Track [ CRC32 ] [W/O NULL] [ LOG ]
-- [4B6CE4DD] [89846C86] W/O NULL
01 [00DF9CA6] [589F9BE1]
02 [0AE10B33] [AE9572A9]
03 [F1560BEF] [DF2C5245]
04 [B091B5E5] [7348EF75]
05 [88C72BF7] [AAC6CE0B]
06 [DD563205] [7750B1B5]
07 [CAC1DC4B] [695BFA91]
08 [5E33BBEE] [94138C68]
09 [289EE21A] [B1DF6EB4]
10 [27E0E855] [2F8036D1]
11 [D2C6A40F] [11317515]
12 [C05FC534] [BA5FDB14]


лог EAC и cuetools рипа MMT:
eac:
EAC extraction logfile from 30. January 2005, 18:57 for CD
Winter / Into Darkness - Eternal Frost

Used drive : PIONEER DVD-RW DVR-108 Adapter: 1 ID: 0
Read mode : Secure with NO C2, accurate stream, disable cache
Read offset correction : 0
Overread into Lead-In and Lead-Out : No

Used output format : C:\Programmi\Exact Audio Copy\MAC.exe (Monkey's Audio Lossless Encoder)
High Lossless Compression

Other options :
Fill up missing offset samples with silence : Yes
Delete leading and trailing silent blocks : No
Installed external ASPI interface


Range status and errors
Selected range
Filename G:\Metalmadness releases\INTO DARKNESS - ETERNAL FROST\Into darkness - Eternal frost.wav

Peak level 98.8 %
Range quality 99.9 %
CRC 711FB884
Copy OK

No errors occured

End of status report

cuetools:
[Verification date: 23.06.2009 22:36:35]
[Disc ID: 00204b0e-012dbdd4-a010ba0c]
Track [ CRC ] Status
01 [fca4c447] (00/02) No matches
02 [49a91309] (00/02) No matches
03 [bf54dc5a] (00/02) No matches
04 [7530c02d] (00/02) No matches
05 [58d19faf] (00/02) No matches
06 [969bf3b5] (00/02) No matches
07 [2257eece] (00/02) No matches
08 [e2048d08] (00/00) No matches
09 [34cfc847] (00/02) No matches
10 [07225edd] (00/02) No matches
11 [521f4b03] (00/02) No matches
12 [f9219f21] (00/02) No matches
Offsetted by 48:
01 [5b2ffa21] (02/02) Accurately ripped as in pressing(s) #1
02 [6b3375c7] (02/02) Accurately ripped as in pressing(s) #1
03 [9bfe474a] (02/02) Accurately ripped as in pressing(s) #1
04 [e64d8ed0] (02/02) Accurately ripped as in pressing(s) #1
05 [09d56f1c] (02/02) Accurately ripped as in pressing(s) #1
06 [da9c5a25] (02/02) Accurately ripped as in pressing(s) #1
07 [fb646e0e] (02/02) Accurately ripped as in pressing(s) #1
08 [893fce48] (00/00) No matches
09 [a35f5b47] (02/02) Accurately ripped as in pressing(s) #1
10 [bcdb52f6] (02/02) Accurately ripped as in pressing(s) #1
11 [3c061eda] (02/02) Accurately ripped as in pressing(s) #1
12 [467cc6d1] (02/02) Accurately ripped as in pressing(s) #1

Track [ CRC32 ] [W/O NULL] [ LOG ]
-- [DA7FAECF] [711FB884] W/O NULL
01 [F4EAF5C0] [444A30E4]
02 [91980620] [65DBD125]
03 [29A7270B] [DF2C5245]
04 [6200ED92] [B9DBFD95]
05 [88F172A6] [0975FE0C]
06 [FEE361BC] [7750B1B5]
07 [CAA560EC] [695BFA91]
08 [F817B926] [94138C68]
09 [4862C26B] [B1DF6EB4]
10 [AC0CF4E2] [8BB64512]
11 [D99262B6] [98A4B6D7]
12 [BB582E6A] [676D45E8]


а вот лог eac с раздачи на ннтт
Спойлер:
EAC extraction logfile from 30. January 2005, 18:57 for CD
Winter / Into Darkness - Eternal Frost

Used drive : PIONEER DVD-RW DVR-108 Adapter: 1 ID: 0
Read mode : Secure with NO C2, accurate stream, disable cache
Read offset correction : 48
Overread into Lead-In and Lead-Out : No

Used output format : C:\Programmi\Exact Audio Copy\MAC.exe (Monkey's Audio Lossless Encoder)
High Lossless Compression

Other options :
Fill up missing offset samples with silence : Yes
Delete leading and trailing silent blocks : No
Installed external ASPI interface

Range status and errors
Selected range
Filename G:\Metalmadness releases\INTO DARKNESS - ETERNAL FROST\Into darkness - Eternal frost.wav

Peak level 98.8 %
Range quality 99.9 %
CRC 352EA088
Copy OK

No errors occured

End of status report

Gentle_Giant, ты его редактировал чтоли?
cuetools не могу проверить, т.к. ту раздачу не качал
dying_inside вне форума  
Ответить с цитированием
Старый 23.06.2009, 23:04   #9
Огненный Бог Марранов
 
Аватар для Gentle_Giant
 
Регистрация: 01.09.2007
Адрес: Пьяный Угол
Пол: M
Сообщений: 508
Поблагодарил: 328
Поблагодарили 874 раз в 326 сообщениях
Открыли хайд :
0 в этом сообщении
464 Всего


По умолчанию

Цитата:
Сообщение от dying_inside Посмотреть сообщение
Gentle_Giant, ты его редактировал чтоли?
Да, если я правлю смещение для привода в рипе, то и лог редактирую соответствующим образом - чтобы не было лишних вопросов от модераторов. Я на ННТТ в первом посте об этом написал:
Цитата:
CUETools предлагали изменить смещение на другое, согласно AccurateRip, но я не стал этого делать, потому что в базе всего лишь один рип, и это явно другой прессинг - скорее всего, переиздание 2008-го года. Я выставил смещение, соответствующее данному приводу: +48.
__________________
Любители потрековых lossless релизов — на самом деле латентные lossy-филы.

Последний раз редактировалось Gentle_Giant; 23.06.2009 в 23:11.
Gentle_Giant вне форума  
Ответить с цитированием
Старый 23.06.2009, 23:08   #10
Дружище
 
Аватар для dying_inside
 
Регистрация: 21.12.2006
Пол: M
Провайдер: Стрим
Сообщений: 960
Поблагодарил: 4,777
Поблагодарили 1,524 раз в 555 сообщениях
Открыли хайд :
0 в этом сообщении
537 Всего


По умолчанию

ладно, пох, факт то что диски одинаковые
dying_inside вне форума  
Ответить с цитированием
Старый 23.06.2009, 23:18   #11
Огненный Бог Марранов
 
Аватар для Gentle_Giant
 
Регистрация: 01.09.2007
Адрес: Пьяный Угол
Пол: M
Сообщений: 508
Поблагодарил: 328
Поблагодарили 874 раз в 326 сообщениях
Открыли хайд :
0 в этом сообщении
464 Всего


По умолчанию

На всякий случай еще раз проверил свой рип от MMT:
CUETools:
Код:
[Verification date: 23.06.2009 23:12:12]
[Disc ID: 00204b0e-012dbdd4-a010ba0c]
Track	[ CRC    ] Status
 01	[5b2ffa21] (02/02) Accurately ripped as in pressing(s) #1
 02	[6b3375c7] (02/02) Accurately ripped as in pressing(s) #1
 03	[9bfe474a] (02/02) Accurately ripped as in pressing(s) #1
 04	[e64d8ed0] (02/02) Accurately ripped as in pressing(s) #1
 05	[09d56f1c] (02/02) Accurately ripped as in pressing(s) #1
 06	[da9c5a25] (02/02) Accurately ripped as in pressing(s) #1
 07	[fb646e0e] (02/02) Accurately ripped as in pressing(s) #1
 08	[893fce48] (00/00) No matches
 09	[a35f5b47] (02/02) Accurately ripped as in pressing(s) #1
 10	[bcdb52f6] (02/02) Accurately ripped as in pressing(s) #1
 11	[3c061eda] (02/02) Accurately ripped as in pressing(s) #1
 12	[467cc6d1] (02/02) Accurately ripped as in pressing(s) #1

Я так понял, на момент предыдущей проверки этого прессинга не было в базе. С другой стороны: куда делся прессинг отличающийся на смещение -71 (см. лог из поста №2)? Что характерно: ошибка в 8 трэке и в рипе MMT и в том, который выложил Avelis.
__________________
Любители потрековых lossless релизов — на самом деле латентные lossy-филы.

Последний раз редактировалось Gentle_Giant; 23.06.2009 в 23:22.
Gentle_Giant вне форума  
Ответить с цитированием
Старый 23.06.2009, 23:23   #12
Дружище
 
Аватар для dying_inside
 
Регистрация: 21.12.2006
Пол: M
Провайдер: Стрим
Сообщений: 960
Поблагодарил: 4,777
Поблагодарили 1,524 раз в 555 сообщениях
Открыли хайд :
0 в этом сообщении
537 Всего


По умолчанию

да, очень странно, доверие 0, а crc есть откуда то
dying_inside вне форума  
Ответить с цитированием
Старый 23.06.2009, 23:32   #13
Огненный Бог Марранов
 
Аватар для Gentle_Giant
 
Регистрация: 01.09.2007
Адрес: Пьяный Угол
Пол: M
Сообщений: 508
Поблагодарил: 328
Поблагодарили 874 раз в 326 сообщениях
Открыли хайд :
0 в этом сообщении
464 Всего


По умолчанию

Цитата:
Сообщение от dying_inside Посмотреть сообщение
да, очень странно, доверие 0, а crc есть откуда то
Наверное, в обоих рипах все же не ошибка, если бы это было бы так то CUETools выдали бы что-то типа: "Partial match to pressing(s) #1"; в наших же случаях CRC не только совпадает, но даже не близко.

Все, надо пить начинать...
__________________
Любители потрековых lossless релизов — на самом деле латентные lossy-филы.
Gentle_Giant вне форума  
Ответить с цитированием
Старый 23.06.2009, 23:39   #14
Дружище
 
Аватар для dying_inside
 
Регистрация: 21.12.2006
Пол: M
Провайдер: Стрим
Сообщений: 960
Поблагодарил: 4,777
Поблагодарили 1,524 раз в 555 сообщениях
Открыли хайд :
0 в этом сообщении
537 Всего


По умолчанию

да нет, там же написано (00/00), то есть данных об этом треке в базе вообще нет, но в то же время, когда ты делаешь проверку, он же с чем то сравнивает... (или нет )
dying_inside вне форума  
Ответить с цитированием
Старый 23.06.2009, 23:49   #15
Огненный Бог Марранов
 
Аватар для Gentle_Giant
 
Регистрация: 01.09.2007
Адрес: Пьяный Угол
Пол: M
Сообщений: 508
Поблагодарил: 328
Поблагодарили 874 раз в 326 сообщениях
Открыли хайд :
0 в этом сообщении
464 Всего


По умолчанию

Да, действительно вторые два нуля смущают, даже при проверке кардинально отличных от баз AR рипах пишется что-нибудь вроде:
CUETools:
Код:
[Verification date: 18.05.2009 11:23:34]
[Disc ID: 001da291-013ebe36-d40e070e]
Track	[ CRC    ] Status
 01	[57e72b32] (00/64) No matches
 02	[af66f53a] (00/64) No matches
 03	[0f12a6eb] (00/64) No matches
 04	[5cd8b5f5] (00/63) No matches
 05	[03770324] (00/63) No matches
 06	[6ac68314] (00/63) No matches
 07	[7b2ef00e] (00/62) No matches
 08	[12bb4304] (00/63) No matches
 09	[1f48971d] (00/62) No matches
 10	[ca2db690] (00/63) No matches
 11	[a75a5009] (00/63) No matches
 12	[b01dce55] (00/63) No matches
 13	[49000241] (00/63) No matches
 14	[e0bddaa2] (00/60) No matches


Подозреваю заговор. Будем считать, что оба рипа верные.
__________________
Любители потрековых lossless релизов — на самом деле латентные lossy-филы.
Gentle_Giant вне форума  
Ответить с цитированием
Старый 24.06.2009, 18:47   #16
Core LoVe
 
Аватар для Qwenn
 
Регистрация: 24.10.2007
Адрес: Богородск
Пол: M
Провайдер: ВТ
Сообщений: 2,581
Поблагодарил: 1,746
Поблагодарили 2,805 раз в 1,066 сообщениях
Открыли хайд :
0 в этом сообщении
3,319 Всего


По умолчанию

Maniac, искать нихрена не умеешь.есть на вате с правильными настройками.потреково
__________________


[Для просмотра данной ссылки нужно зарегистрироваться]
Qwenn вне форума  
Ответить с цитированием
Старый 24.06.2009, 18:55   #17
Продюсер
 
Аватар для Maniac
 
Регистрация: 19.09.2007
Пол: M
Провайдер: Dial-up
Сообщений: 3,323
Поблагодарил: 1,757
Поблагодарили 4,783 раз в 1,407 сообщениях
Открыли хайд :
0 в этом сообщении
5,329 Всего


По умолчанию

Qwenn, во первых я свою регу с ваты давно уже отдал, так что меня там нет, и во вторых потреково меня не интерисует, только фирма с правильными настройками и образ + кью +лог, а также очень желательно сканы (хотя не уверен что в 1989 он с буклетом выпускался). И в третих мне кажется ты флудишь, выпиши ка себе предупреждение.
Maniac вне форума  
Ответить с цитированием
Старый 24.06.2009, 18:57   #18
Особый статус
 
Аватар для MoonTemple
 
Регистрация: 18.08.2007
Пол: M
Провайдер: ВТ
Сообщений: 1,161
Поблагодарил: 1,333
Поблагодарили 3,236 раз в 845 сообщениях
Открыли хайд :
0 в этом сообщении
1,799 Всего


По умолчанию

Ужас, я вам не завидую, ребят
__________________
1193019268
[Для просмотра данной ссылки нужно зарегистрироваться] Opposition!
MoonTemple вне форума  
Ответить с цитированием
Старый 24.06.2009, 19:04   #19
Core LoVe
 
Аватар для Qwenn
 
Регистрация: 24.10.2007
Адрес: Богородск
Пол: M
Провайдер: ВТ
Сообщений: 2,581
Поблагодарил: 1,746
Поблагодарили 2,805 раз в 1,066 сообщениях
Открыли хайд :
0 в этом сообщении
3,319 Всего


По умолчанию

Maniac, выписать тебе?да пожалуйста
__________________


[Для просмотра данной ссылки нужно зарегистрироваться]
Qwenn вне форума  
Ответить с цитированием
Старый 24.06.2009, 19:06   #20
Продюсер
 
Аватар для Maniac
 
Регистрация: 19.09.2007
Пол: M
Провайдер: Dial-up
Сообщений: 3,323
Поблагодарил: 1,757
Поблагодарили 4,783 раз в 1,407 сообщениях
Открыли хайд :
0 в этом сообщении
5,329 Всего


По умолчанию

квен, ты больше для меня не существуешь,выписывай чё хочешь, пользуйся моментом, таких мудаков модеров у нас в хард клубе не когда небыло, ты первый и надеюсь последний.
Maniac вне форума  
Ответить с цитированием
Ответ


Здесь присутствуют: 1 (пользователей: 0 , гостей: 1)
 
Опции темы
Опции просмотра

Ваши права в разделе
Вы не можете создавать новые темы
Вы не можете отвечать в темах
Вы не можете прикреплять вложения
Вы не можете редактировать свои сообщения

BB коды Вкл.
Смайлы Вкл.
[IMG] код Вкл.
HTML код Выкл.
Trackbacks are Выкл.
Pingbacks are Выкл.
Refbacks are Выкл.


Часовой пояс GMT +3, время: 14:07.